Marvel's Avengers Deluxe Edition (супер цена) 159р. Внимание количество ограничено!!!

2 сезон

iTunes

iTunes

1

iTunes

iTunes

iTunes

WEBRip

iTunes

30
pack

Новость дня

ВАЖНО

!!Акция!!

Alien_RageХит недели

RePack

Horizon Zero Dawn

ИГРА 18+

pack

RePack

jed

!!Акция!!

Alien_Rage

RePack

fifa19

RePack

Assassins Creed: Odyssey

RePack

NEED FOR SPEED™ PAYBACK

4 сезон

9 сезон

Бесстыжие 9 сезон

Все сериалы

все сериалы на PB.wtf

RePack

FAR CRY 5
  

Самый лучший день (Жора Крыжовников) [2015, комедия, музыка, BDRip 1080p от ExKinoRay] Лицензия piratbit.pw

Самый лучший день через торрент piratbit.pw

Размер: 9.35 GB | Добавлен: 4 года 7 мес. назад | Торрент скачан:497 раз
Скачать  

17-02-2016 17:58 Самый лучший день Скачать торрент  

Самый лучший день
Год выпуска » 2015
Страна » Россия / Базелевс Продакшн
Жанр » комедия, музыка
Продолжительность » 01:47:04
Перевод » Оригинал [BD RUS]
Субтитры » Нет
Навигация по главам » есть
В ролях
» Дмитрий Нагиев, Юлия Александрова, Ольга Серябкина, Инна Чурикова, Михаил Боярский, Елена Яковлева, Владислав Ветров, Валентина Мазунина, Ян Цапник, Андрей Малахов, Толепберген Байсакалов, Юлия Синицына, Юлия Сулес, Александр Иванков, Андрей Ребенков, Михаил Павлик, Сергей Лавыгин, Михаил Черкасов, Илья Рубанов

Режиссёр
» Жора Крыжовников
ОПИСАНИЕ:
» Успешному сотруднику ДПС Пете Васютину уже давно пора заводить семью, а он живет с мамой, хозяйкой придорожного кафе. И невеста есть - королева бензоколонки, кассирша Оля. В тот самый день, когда Петя решает сделать Оле предложение, в его служебную машину врезается пьяная поп-звезда Алина Шёпот. Чтобы избежать наказания, Алина решает соблазнить Петю...
• Качество » BDRip 1080p
• Формат » MKV
• Видео кодек » AVC
• Аудио кодек » AC3
Видео: AVC, 1918x1040 (16:9), 24.000 fps, 10,4 Мбит/сек (0.123 bit/pixel)
Аудио #1: AC-3, 48.0 KHz, 6 ch, 640 Kbps, CBR (Russian)
Аудио #2: DTS, 48.0 KHz, 6 ch, 1 510 Kbps, CBR (Russian)


Общее
Уникальный идентификатор : 217394369405568311475107271812727091552 (0xA38CA1F0A0AD2CBB845EA610BEEEB160)
Полное имя : D:ЗагрузкиSamij.Luchshij.Den.2015.x264.BDRip.(1080p).ExKinoRay..mkv
Формат : Matroska
Версия формата : Version 2
Размер файла : 9,35 Гбайт
Продолжительность : 1 ч. 47 м.
Общий поток : 12,5 Мбит/сек
Название фильма : Самый лучший день.2015.Rip by: ollan
Дата кодирования : UTC 2016-02-12 20:41:45
Программа кодирования : mkvmerge v5.6.0 ('Kenya Kane') built on May 27 2012 16:44:04
Библиотека кодирования : libebml v1.2.3 + libmatroska v1.3.0

Видео
Идентификатор : 1
Формат : AVC
Формат/Информация : Advanced Video Codec
Профиль формата : High@L4.1
Параметр CABAC формата : Да
Параметр ReFrames формата : 4 кадра
Идентификатор кодека : V_MPEG4/ISO/AVC
Продолжительность : 1 ч. 47 м.
Битрейт : 10,4 Мбит/сек
Ширина : 1918 пикселей
Высота : 1040 пикселей
Соотношение сторон : 1,85:1
Режим частоты кадров : Постоянный
Частота кадров : 24,000 кадра/сек
Цветовое пространство : YUV
Субдискретизация насыщенности : 4:2:0
Битовая глубина : 8 бит
Тип развёртки : Прогрессивная
Бит/(Пиксели*Кадры) : 0.217
Размер потока : 7,56 Гбайт (81%)
Библиотека кодирования : x264 core 146 r2538 121396c
Настройки программы : cabac=1 / ref=4 / deblock=1:-3:-3 / analyse=0x3:0x113 / me=umh / subme=11 / psy=1 / psy_rd=1.00:0.05 / mixed_ref=1 / me_range=48 / chroma_me=1 / trellis=2 / 8x8dct=1 / cqm=0 / deadzone=21,11 / fast_pskip=0 / chroma_qp_offset=-3 / threads=12 / lookahead_threads=2 / sliced_threads=0 / nr=0 / decimate=0 / interlaced=0 / bluray_compat=0 / constrained_intra=0 / bframes=9 / b_pyramid=2 / b_adapt=2 / b_bias=0 / direct=3 / weightb=1 / open_gop=0 / weightp=2 / keyint=240 / keyint_min=23 / scenecut=40 / intra_refresh=0 / rc_lookahead=40 / rc=2pass / mbtree=0 / bitrate=10400 / ratetol=1.0 / qcomp=0.60 / qpmin=0 / qpmax=69 / qpstep=4 / cplxblur=20.0 / qblur=0.5 / vbv_maxrate=14000 / vbv_bufsize=14000 / nal_hrd=none / filler=0 / ip_ratio=1.40 / pb_ratio=1.30 / aq=1:1.00
Язык : Russian
Default : Да
Forced : Нет

Аудио #1
Идентификатор : 2
Формат : AC-3
Формат/Информация : Audio Coding 3
Расширение режима : CM (complete main)
Параметр Endianness формата : Big
Идентификатор кодека : A_AC3
Продолжительность : 1 ч. 47 м.
Вид битрейта : Постоянный
Битрейт : 640 Кбит/сек
Каналы : 6 каналов
Расположение каналов : Front: L C R, Side: L R, LFE
Частота : 48,0 КГц
Битовая глубина : 16 бит
Метод сжатия : С потерями
Размер потока : 490 Мбайт (5%)
Заголовок : Лицензия
Язык : Russian
Default : Да
Forced : Нет

Аудио #2
Идентификатор : 3
Формат : DTS
Формат/Информация : Digital Theater Systems
Режим : 16
Параметр Endianness формата : Big
Идентификатор кодека : A_DTS
Продолжительность : 1 ч. 47 м.
Вид битрейта : Постоянный
Битрейт : 1510 Кбит/сек
Каналы : 6 каналов
Расположение каналов : Front: L C R, Side: L R, LFE
Частота : 48,0 КГц
Битовая глубина : 24 бит
Метод сжатия : С потерями
Размер потока : 1,13 Гбайт (12%)
Заголовок : Лицензия
Язык : Russian
Default : Нет
Forced : Нет

Меню
00:00:00.000 : ru:Chapter 01
00:09:06.958 : ru:Chapter 02
00:19:34.291 : ru:Chapter 03
00:28:42.625 : ru:Chapter 04
00:37:55.125 : ru:Chapter 05
00:47:10.416 : ru:Chapter 06
00:54:46.833 : ru:Chapter 07
01:03:51.750 : ru:Chapter 08
01:11:21.583 : ru:Chapter 09
01:21:14.916 : ru:Chapter 10
01:29:51.375 : ru:Chapter 11
01:40:00.083 : ru:Chapter 12
01:47:04.625 : ru:Chapter 13
скриншот   скриншот   скриншот   скриншот   скриншот   скриншот  
piratbit.pw



Скачать Самый лучший день через торрент http://pic1.kartinco.top/images/10/h7e5f.jpg Скачать фильм Самый лучший день через торрент бесплантно в хорошем качестве ОПИСАНИЕ: » Успешному сотруднику ДПС Пете Васютину уже давно пора заводить семью, а он живет с мамой, хозяйкой придорожного кафе. И невеста ... 8.2 10 22
Info! Золотая раздача, скачанное не засчитывается.
Торрент: Зарегистрирован [2016-02-17 17:58] · скачан: 497 раз
Статус: √ проверено
Размер: 9.35 GB
Как cкачать? Как скачать Самый лучший день через торрент | qTorrent

% Раздел Тема Автор DL S | L
Наши фильмы (HD, WEB-DL 720p, 1080p) [ 4.37 GB ] Самый лучший день [2015 музыка BDRip 720p] potroks Скачать
1 | 0
Наши новые фильмы 2015 [ 1.46 GB ] Самый лучший день [2015 музыка BDRip Оригинальный [] Twi7ter Скачать
1 | 0
Наши новые фильмы 2015 [ 1.47 GB ] Самый лучший день [2015 Россия музыка BDRip от keeper.52] keeper.52 Скачать
2 | 0
Наши новые фильмы 2015 [ 1.46 GB ] Самый лучший день [2015 музыка WEB-DLRip Оригинальный Twi7ter Скачать
1 | 0
Наши новые фильмы 2015 [ 2.18 GB ] Самый лучший день [2015 музыка BDRip-AVC] potroks Скачать
2 | 0
Наши новые фильмы 2015 [ 2.17 GB ] Самый лучший день [2015 музыка HDRip Оригинальный ""] coc900 Скачать
1 | 0
Наши фильмы (Blu-ray, BD-Remux, HDDVD) [ 19.72 GB ] Самый лучший день [2015 музыка Blu-ray] Russian Mafia Скачать
1 | 0

28-11-2019 20:33  

Отключить всю рекламу на сайте

19-02-2016 11:54 Самый лучший день Скачать торрент  

как кинчек ребят?piratbit.pw



19-02-2016 13:36 Самый лучший день Скачать торрент  

смотрел в к.т - кинчек - огонь!piratbit.pw



20-02-2016 09:13 Самый лучший день Скачать торрент  

Там где Нагиев везде пахнет тухлятиной Зачем вообще снимают это животное?piratbit.pw



20-02-2016 10:50 Самый лучший день Скачать торрент  

Шняга полнаяpiratbit.pw



22-02-2016 14:06 Самый лучший день Скачать торрент  

Фильм просто отвратительный!piratbit.pw



08-03-2016 12:57 Самый лучший день Скачать торрент  

Фильм вполне смотрибельный, Нагиев может и не король комедии , но тянет хорошо.Со стебом и больше наверное с грустинкой срез нашей развеселой жизни.piratbit.pw



    Дорогой пользователь! Огромная просьба, поблагодарите релизера, оцените раздачу и оставьте свои комментарий, если Вы скачали Самый лучший день через торрент бесплатно! Внесите свою лепту в развитие PiratBit!
    Комментировать посты могут только пользователи прошедшие не сложную регистрацию
    Показать сообщения:    

    Самый лучший день через торрент
    Скачать бесплатно Самый лучший день
    Самый лучший день скачать торрент
    Самый лучший день смотреть онлайн
    Cкачать фильм Самый лучший день бесплатно
    Самый лучший день скачать торрент в хорошем качестве
    Самый лучший день смотреть онлайн бесплатно в хорошем качестве


    Вы не можете начинать темы
    Вы не можете отвечать на сообщения
    Вы не можете редактировать свои сообщения
    Вы не можете удалять свои сообщения
    Вы не можете голосовать в опросах
    Вы не можете прикреплять файлы к сообщениям
    Вы можете скачивать файлы