Ссылка на приватное зеркало нашего сайта всего за 1$. Внимание количество ограничено!!!

2 сезон

iTunes

iTunes

1

iTunes

iTunes

iTunes

WEBRip

iTunes

30
pack

Вам бонус

ВАЖНО

!!Акция!!

Alien_RageХит недели

RePack

Horizon Zero Dawn

ИГРА 18+

pack

RePack

jed

!!Акция!!

Alien_Rage

RePack

fifa19

RePack

Assassins Creed: Odyssey

RePack

NEED FOR SPEED™ PAYBACK

4 сезон

9 сезон

Бесстыжие 9 сезон

Все сериалы

все сериалы на PB.wtf

RePack

FAR CRY 5
  

Влюбить и обезвредить / Любовь в розыске (Анарио Мамедов) [2015, Комедия, WEB-DL 1080p, [Русский] piratbit.pw

Влюбить и обезвредить через торрент piratbit.pw

Размер: 3.93 GB | Добавлен: 4 года 7 мес. назад | Торрент скачан:355 раз
Скачать  

17-02-2016 10:28 Влюбить и обезвредить Скачать торрент  

Влюбить и обезвредить / Любовь в розыске
Год выпуска » 2015
Страна » Россия, Маурис Филм
Жанр » Комедия
Продолжительность » 01:49:19
Перевод » Не требуется [Русский]
Субтитры » Нет

В ролях
» Анастасия Панина, Роман Полянский, Максим Битюков, Анна Пескова, Вадим Андреев, Андрей Бутин, Юлия Жигалина, Вячеслав Хархота, Юлия Подозерова

Режиссёр
» Анарио Мамедов
ОПИСАНИЕ:
» Отчаявшись устроить личное счастье сотрудник полиции Анна в шутку составляет фоторобот мужчины своей мечты. По ошибке изображение попадает в базу розыска преступников и теперь все уверены, что именно так выглядит загадочный вор, которого боятся во всех ювелирных города. Безобидный программист Саша, поразительно похожий на фантазию Анны, приходит в магазин за обручальными кольцами для своей свадьбы и тут же оказывается в наручниках. В полиции быстро выясняют правду, но решают до поры до времени скрыть ее от Саши. Анне поручают присматривать за парнем, чтобы «на живца» поймать не только настоящего вора, но и опасных бандитов, гоняющихся за ним. Вот только хладнокровно следовать профессиональному долгу, сутками находясь рядом с самым желанным мужчиной, оказывается совсем непросто.
• Качество » WEB-DL 1080p
• Формат » MKV
• Видео кодек » AVC
• Аудио кодек » AC3
• Видео » MPEG-4 AVC, 4856 Кбит/с, 1920x1014, 25 кадр/с
• Аудио » Русский (AC-3 / 2 ch / 192 kbps /16 bit )


Общее
Уникальный идентификатор : 253379273612259058862743273893729867621 (0xBE9F12B2560DA6498004CADDEC8F1765)
Полное имя : E:\FLL_N_LV_NTRLZ_2015_WEB-DL_1080P -BLUEBIRD.mkv
Формат : Matroska
Версия формата : Version 4 / Version 2
Размер файла : 3,93 Гбайт
Продолжительность : 1 ч. 49 м.
Общий поток : 5151 Кбит/сек
Название фильма : Влюбить и обезвредить (2015) [BLUEBIRD]
Дата кодирования : UTC 2016-02-15 18:46:01
Программа кодирования : mkvmerge v7.1.0 ('Good Love') 64bit built on Jul 27 2014 13:06:55
Библиотека кодирования : libebml v1.3.0 + libmatroska v1.4.1
DURATION : 01:49:18.784000000
NUMBER_OF_FRAMES : 204962
NUMBER_OF_BYTES : 157410816
_STATISTICS_WRITING_APP : mkvmerge v7.1.0 ('Good Love') 64bit built on Jul 27 2014 13:06:55
_STATISTICS_WRITING_DATE_UTC : 2016-02-15 18:46:01
_STATISTICS_TAGS : BPS DURATION NUMBER_OF_FRAMES NUMBER_OF_BYTES

Видео
Идентификатор : 1
Формат : AVC
Формат/Информация : Advanced Video Codec
Профиль формата : High@L4.0
Параметр CABAC формата : Да
Параметр ReFrames формата : 4 кадра
Идентификатор кодека : V_MPEG4/ISO/AVC
Продолжительность : 1 ч. 49 м.
Битрейт : 4856 Кбит/сек
Ширина : 1920 пикселей
Высота : 1014 пикселей
Соотношение сторон : 1,893
Режим частоты кадров : Постоянный
Частота кадров : 25,000 кадров/сек
Цветовое пространство : YUV
Субдискретизация насыщенности : 4:2:0
Битовая глубина : 8 бит
Тип развёртки : Прогрессивная
Бит/(Пиксели*Кадры) : 0.100
Размер потока : 3,71 Гбайт (94%)
Заголовок : FLL_N_LV_NTRLZ_2015_WEB-DL_1080P -BLUEBIRD
Язык : Russian
Default : Да
Forced : Нет
Основные цвета : BT.709
Характеристики трансфера : BT.709
Коэффициенты матрицы : BT.709

Аудио
Идентификатор : 2
Формат : AC-3
Формат/Информация : Audio Coding 3
Расширение режима : CM (complete main)
Параметр Endianness формата : Big
Идентификатор кодека : A_AC3
Продолжительность : 1 ч. 49 м.
Вид битрейта : Постоянный
Битрейт : 192 Кбит/сек
Каналы : 2 канала
Расположение каналов : Front: L R
Частота : 48,0 КГц
Битовая глубина : 16 бит
Метод сжатия : С потерями
Размер потока : 150 Мбайт (4%)
Заголовок : iTUNES
Язык : Russian
Default : Да
Forced : Нет

Меню
00:00:00.000 : en:Chapter 01
00:05:02.000 : en:Chapter 02
00:10:15.000 : en:Chapter 03
00:15:55.000 : en:Chapter 04
00:22:11.000 : en:Chapter 05
00:27:52.000 : en:Chapter 06
00:32:35.000 : en:Chapter 07
00:38:04.000 : en:Chapter 08
00:42:13.000 : en:Chapter 09
00:49:27.000 : en:Chapter 10
00:55:07.000 : en:Chapter 11
01:02:06.000 : en:Chapter 12
01:09:29.000 : en:Chapter 13
01:14:05.000 : en:Chapter 14
01:19:56.000 : en:Chapter 15
01:25:16.000 : en:Chapter 16
01:30:04.000 : en:Chapter 17
01:37:01.000 : en:Chapter 18
01:44:08.000 : en:Chapter 19
скриншот   скриншот   скриншот   скриншот  
piratbit.pw



Скачать Влюбить и обезвредить через торрент http://pic1.kartinco.top/images/10/yl2ao.jpg Скачать фильм Влюбить и обезвредить через торрент бесплантно в хорошем качестве ОПИСАНИЕ: » Отчаявшись устроить личное счастье сотрудник полиции Анна в шутку составляет фоторобот мужчины своей мечты. По ошибке ... 8.6 10 11
Торрент: Зарегистрирован [2016-02-17 10:28] · скачан: 355 раз
Статус: T временная
Размер: 3.93 GB
Как cкачать? Как скачать Влюбить и обезвредить через торрент | qTorrent

% Раздел Тема Автор DL S | L
T Наши новые фильмы 2015 [ 2.17 GB ] Влюбить и обезвредить / Любовь в розыске [2015 WEB-DLRip [Русский] $-DRON-$ Скачать
1 | 0
T Наши новые фильмы 2015 [ 1.45 GB ] Влюбить и обезвредить / Любовь в розыске [2015 WEB-DLRip [Русский] $-DRON-$ Скачать
5 | 0


Последний раз редактировалось: $-DRON-$ (2016-02-17 10:34), всего редактировалось 1 раз

28-11-2019 20:33  

Отключить всю рекламу на сайте

17-02-2016 10:32 Влюбить и обезвредить Скачать торрент  

Сэмпл не отсюдаpiratbit.pw



17-02-2016 10:35 Влюбить и обезвредить Скачать торрент  

schultz, он был в процессе,теперь всё хорошо!piratbit.pw



    Дорогой пользователь! Огромная просьба, поблагодарите релизера, оцените раздачу и оставьте свои комментарий, если Вы скачали Влюбить и обезвредить через торрент бесплатно! Внесите свою лепту в развитие PiratBit!
    Комментировать посты могут только пользователи прошедшие не сложную регистрацию
    Показать сообщения:    

    Влюбить и обезвредить через торрент
    Скачать бесплатно Влюбить и обезвредить
    Влюбить и обезвредить скачать торрент
    Влюбить и обезвредить смотреть онлайн
    Cкачать фильм Влюбить и обезвредить бесплатно
    Влюбить и обезвредить скачать торрент в хорошем качестве
    Влюбить и обезвредить смотреть онлайн бесплатно в хорошем качестве


    Вы не можете начинать темы
    Вы не можете отвечать на сообщения
    Вы не можете редактировать свои сообщения
    Вы не можете удалять свои сообщения
    Вы не можете голосовать в опросах
    Вы не можете прикреплять файлы к сообщениям
    Вы можете скачивать файлы