Marvel's Avengers Deluxe Edition (супер цена) 159р. Внимание количество ограничено!!!

2 сезон

iTunes

iTunes

1

iTunes

iTunes

iTunes

WEBRip

iTunes

30
pack

Новость дня

ВАЖНО

!!Акция!!

Alien_RageХит недели

RePack

Horizon Zero Dawn

ИГРА 18+

pack

RePack

jed

!!Акция!!

Alien_Rage

RePack

fifa19

RePack

Assassins Creed: Odyssey

RePack

NEED FOR SPEED™ PAYBACK

4 сезон

9 сезон

Бесстыжие 9 сезон

Все сериалы

все сериалы на PB.wtf

RePack

FAR CRY 5
  

Он – дракон (Индар Джендубаев) [2015, фэнтези, BDRip 720p от potroks] Лицензия piratbit.pw

Он – дракон через торрент piratbit.pw

Размер: 3.54 GB | Добавлен: 4 года 7 мес. назад | Торрент скачан:484 раза
Скачать  

14-02-2016 21:05 Он – дракон Скачать торрент  

Он – дракон
«Любить страшно»
Год выпуска: 2015
Страна: Россия / Базелевс Продакшн
Жанр: фэнтези
Продолжительность: 01:47:04
Перевод: Оригинал [BD RUS]
Навигация по главам: есть
Режиссер: Индар Джендубаев
В ролях:

Мария Поезжаева (Мирослава), Матвей Лыков (Арман), Станислав Любшин (князь), Иева Андреевайте (Ярослава), Петр Романов (Игорь), Андрей Лебединский (Кормчий), Марта Тимофеева (дочь Миры и Армана), Иво Господинов (Арман мальчик), Егор Зубарчук (отец Армана), Виктория Рунцова (невеста 1), Анастасия Дубровина (невеста 2), Алена Чехова (невеста 3)
Описание: В разгар свадьбы княжну Мирославу похищает дракон, унося в свой замок на острове. В прошлом остались родные, жених, теперь только каменный плен в компании прекрасного Армана... но кто он и как оказался на острове? Мира поймет это слишком поздно: любовь к нему, человеку-дракону, откроет ей горькую истину - любить страшно.

Качество: BDRip 720p
Формат: MKV
Видео кодек: AVC
Аудио кодек: AC3
Видео: 1280x544 (2.35:1), 4106 kbps, 24 fps, 0.246 bit/pixel
Аудио: AC3 / 5.1 / 48 kHz / 640 kbps / 16 bit

Релиз группы:
Автор рипа: potroks

Код:

Общее
Уникальный идентификатор : 177552954642005384787815345398217227087 (0x85937488607DF3E89F867F5FDB68BB4F)
Полное имя : On.Drakon.2015.RUS.BDRip.720p.-HELLYWOOD.mkv
Формат : Matroska
Версия формата : Version 4 / Version 2
Размер файла : 3,54 Гбайт
Продолжительность : 1 ч. 47 м.
Общий поток : 4732 Кбит/сек
Название фильма : Он – дракон (2015) - HELLYWOOD
Дата кодирования : UTC 2016-02-14 20:41:33
Программа кодирования : mkvmerge v5.9.0 ('On The Loose') built on Dec 15 2012 16:39:58
Библиотека кодирования : libebml v1.3.0 + libmatroska v1.4.0

Видео
Идентификатор : 1
Формат : AVC
Формат/Информация : Advanced Video Codec
Профиль формата : High@L4.1
Параметр CABAC формата : Да
Параметр ReFrames формата : 9 кадров
Идентификатор кодека : V_MPEG4/ISO/AVC
Продолжительность : 1 ч. 47 м.
Битрейт : 4106 Кбит/сек
Ширина : 1280 пикселей
Высота : 544 пикселя
Соотношение сторон : 2,35:1
Режим частоты кадров : Постоянный
Частота кадров : 24,000 кадра/сек
Цветовое пространство : YUV
Субдискретизация насыщенности : 4:2:0
Битовая глубина : 8 бит
Тип развёртки : Прогрессивная
Бит/(Пиксели*Кадры) : 0.246
Размер потока : 2,99 Гбайт (84%)
Заголовок : potroks
Библиотека кодирования : x264 core 148 r2665M a01e339
Настройки программы : cabac=1 / ref=9 / deblock=1:-3:-3 / analyse=0x3:0x133 / me=umh / subme=11 / psy=1 / psy_rd=1.00:0.05 / mixed_ref=1 / me_range=48 / chroma_me=1 / trellis=2 / 8x8dct=1 / cqm=0 / deadzone=21,11 / fast_pskip=0 / chroma_qp_offset=-3 / threads=9 / lookahead_threads=2 / sliced_threads=0 / nr=0 / decimate=1 / interlaced=0 / bluray_compat=0 / constrained_intra=0 / bframes=10 / b_pyramid=2 / b_adapt=2 / b_bias=0 / direct=3 / weightb=1 / open_gop=0 / weightp=2 / keyint=240 / keyint_min=23 / scenecut=40 / intra_refresh=0 / rc=2pass / mbtree=0 / bitrate=4106 / ratetol=1.0 / qcomp=0.70 / qpmin=0 / qpmax=69 / qpstep=4 / cplxblur=20.0 / qblur=0.5 / ip_ratio=1.40 / pb_ratio=1.30 / aq=1:0.80
Язык : Russian
Default : Да
Forced : Нет
Цветовой диапазон : Limited
Основные цвета : BT.709
Характеристики трансфера : BT.709
Коэффициенты матрицы : BT.709

Аудио
Идентификатор : 2
Формат : AC-3
Формат/Информация : Audio Coding 3
Расширение режима : CM (complete main)
Параметр Endianness формата : Big
Идентификатор кодека : A_AC3
Продолжительность : 1 ч. 47 м.
Вид битрейта : Постоянный
Битрейт : 640 Кбит/сек
Каналы : 6 каналов
Расположение каналов : Front: L C R, Side: L R, LFE
Частота : 48,0 КГц
Метод сжатия : С потерями
Размер потока : 490 Мбайт (14%)
Заголовок : Original | DD 5.1 @ 640 kbps
Язык : Russian
Default : Да
Forced : Нет

Меню
00:00:00.000 : en:(01)00:00:00:000
00:08:32.041 : en:(02)00:08:32:041
00:17:11.583 : en:(03)00:17:11:583
00:26:33.875 : en:(04)00:26:33:875
00:30:51.333 : en:(05)00:30:51:333
00:42:29.916 : en:(06)00:42:29:916
00:53:36.041 : en:(07)00:53:36:041
01:03:58.083 : en:(08)01:03:58:083
01:09:32.166 : en:(09)01:09:32:166
01:15:17.750 : en:(10)01:15:17:750
01:21:58.833 : en:(11)01:21:58:833
01:35:46.000 : en:(12)01:35:46:000
01:47:04.541 : en:(13)01:47:04:541

piratbit.pw



Скачать Он – дракон через торрент http://i73.fastpic.ru/big/2016/0205/6c/85c15f7bd9e2bf2e34d511f304dda46c.png Скачать фильм Он – дракон через торрент бесплантно в хорошем качестве Описание: В разгар свадьбы княжну Мирославу похищает дракон, унося в свой замок на острове. В прошлом остались родные, жених, теперь ... 10 10 9
Info! Золотая раздача, скачанное не засчитывается.
Торрент: Зарегистрирован [2016-02-14 21:05] · скачан: 484 раз
Статус: √ проверено
Размер: 3.54 GB
Как cкачать? Как скачать Он – дракон через торрент | qTorrent

% Раздел Тема Автор DL S | L
Фильмы 2019-2020 [DVDrip, WEB-DLRip, HDrip] (DUB, MVO) [ 2.18 GB ] Тайна печати дракона / Тайна Железной маски: путешествие в Китай [2019 BDRip] - [] Twi7ter Скачать
81 | 2
Фильмы 2019-2020 [DVDrip, WEB-DLRip, HDrip] (DUB, MVO) [ 1.46 GB ] Тайна печати дракона / Тайна Железной маски: путешествие в Китай [2019 BDRip] - [] Twi7ter Скачать
41 | 2
Фильмы (HD 720p, 1080p) (48-60 fps) [ 4.88 GB ] Мумия: Гробница Императора Драконов / The Mummy: Tomb of the Dragon Emperor [2008 BDRip 720p ] slaventi-69 Скачать
2 | 0
Фильмы 2019-2020 [DVDrip, WEB-DLRip, HDrip] (DUB, MVO) [ 1.45 GB ] Тайна печати дракона / Тайна Железной маски: путешествие в Китай [2019 HDRip-AVC] DUB [] - ExKinoRay Enigma2010 Скачать
24 | 1
Фильмы [HD 720p, 1080p] (Хороший звук DUB, MVO) [ 11.42 GB ] Тайна печати дракона / Тайна Железной маски: путешествие в Китай [2019 BDRip 720p] DUB [] bober100 Скачать
2 | 0
Фильмы [HD 720p, 1080p] (Хороший звук DUB, MVO) [ 17.53 GB ] Тайна печати дракона / Тайна Железной маски: путешествие в Китай [2019 BDRip 1080p] DUB [] bober100 Скачать
8 | 1
Фильмы 2019-2020 [DVDrip, WEB-DLRip, HDrip] (DUB, MVO) [ 797 MB ] Тайна печати дракона / Тайна Железной маски: путешествие в Китай [2019 HDRip] DUB [] bober100 Скачать
6 | 0

28-11-2019 20:33  

Отключить всю рекламу на сайте

08-03-2016 12:59 Он – дракон Скачать торрент  

Сделанное качественное красивое фентези, посмотрел с удовольствием, 9/10.piratbit.pw



    Дорогой пользователь! Огромная просьба, поблагодарите релизера, оцените раздачу и оставьте свои комментарий, если Вы скачали Он – дракон через торрент бесплатно! Внесите свою лепту в развитие PiratBit!
    Комментировать посты могут только пользователи прошедшие не сложную регистрацию
    Показать сообщения:    

    Он – дракон через торрент
    Скачать бесплатно Он – дракон
    Он – дракон скачать торрент
    Он – дракон смотреть онлайн
    Cкачать фильм Он – дракон бесплатно
    Он – дракон скачать торрент в хорошем качестве
    Он – дракон смотреть онлайн бесплатно в хорошем качестве


    Вы не можете начинать темы
    Вы не можете отвечать на сообщения
    Вы не можете редактировать свои сообщения
    Вы не можете удалять свои сообщения
    Вы не можете голосовать в опросах
    Вы не можете прикреплять файлы к сообщениям
    Вы можете скачивать файлы