Ссылка на приватное зеркало всего за 1$. Внимание количество ограничено!!!

iTunes

1+1

iTunes

мы

MV0

1

WEB-DLRip

Джокер

Пифагор

Ведьмак / The Witcher сериал

iTunes

ПШазам

iTunes

Оно 2

iTunes

30
pack

Вам бонус

ВАЖНО

!!Акция!!

Alien_RageХит недели

RePack

Resident Evil 21

ИГРА 18+

pack

RePack

jed

!!Акция!!

Alien_Rage

RePack

fifa19

RePack

Assassins Creed: Odyssey

RePack

NEED FOR SPEED™ PAYBACK

4 сезон

9 сезон

Бесстыжие 9 сезон

Все сериалы

все сериалы на PB.wtf

RePack

FAR CRY 5
  

Крид: Наследие Рокки / Creed (Райан Куглер) [2015, драма, спорт, BDRip 1080p, Профессиональный (многоголосый) IDEAFILM] R.G.Resident Без рекламы piratbit.pw

Крид: Наследие Рокки через торрент piratbit.pw

Размер: 10.61 GB | Добавлен: 4 года назад | Торрент скачан:257 раз
Скачать  

14-02-2016 15:07 Крид: Наследие Рокки Скачать торрент  

Крид: Наследие Рокки / Creed
««Your legacy is more than a name»»

Год выпуска: 2015
Страна: США
Жанр: драма, спорт
Продолжительность: 02:13:10
Перевод: Профессиональный (многоголосый) IDEAFILM
Режиссер: Райан Куглер
В ролях:

Майкл Б. Джордан (Adonis Johnson), Сильвестр Сталлоне (Rocky Balboa), Тесса Томпсон (Bianca), Филисия Рашад (Mary Anne Creed), Андре Уорд (Danny «Stuntman» Wheeler), Тони Белью («Pretty» Ricky Conlan), Ричи Костер (Pete Sporino), Джейкоб ’Стич’ Дюран (Stitch), Грэм МакТавиш (Tommy Holiday), Malik Bazille (Amir), Ricardo McGill (Padman), Габриэль Росадо (Leo «The Lion» Sporino)
Описание:
В центре внимания сын Аполло Крида - первого серьезного соперника Рокки Бальбоа на ринге, впоследствии ставшего лучшим другом героя. Талант отца в какой-то момент проявляется и в Криде-младшем, и юноша отправляется на поиски наставника, коим для него в итоге становится постаревший Рокки, тоже не слишком жаждущий возвращаться к старым делам. Даже в качестве тренера.
Мировая премьера: 25 ноября 2015

MPAA: PG-13 - Детям до 13 лет просмотр не желателен
Качество: BDRip 1080p Rip by schultz R.G.Resident
Формат: MKV
Видео: AVC, 1920x800 (2.40:1), 10358 kbps, 23,976 fps, 0,281 bpp
Аудио №1: русский / AC3 / 5.1 / 48 kHz / 448 kbps / 16 bit
Аудио №2: английский / AC3 / 5.1 / 48 kHz / 640 kbps / 16 bit

Код:

General
Unique ID                                : 240463932969127874075250906219376442699 (0xB4E7AB3D5C4961B8ACF43160AD6A7D4B)
Complete name                            : D:\download\Creed.2015.BDRip 1080p by schultz R.G.Resident.mkv
Format                                   : Matroska
Format version                           : Version 4 / Version 2
File size                                : 10.6 GiB
Duration                                 : 2h 13mn
Overall bit rate                         : 11.4 Mbps
Encoded date                             : UTC 2016-02-14 11:45:53
Writing application                      : mkvmerge v6.7.0 ('Back to the Ground') 64bit built on Jan  8 2014 15:10:52
Writing library                          : libebml v1.3.0 + libmatroska v1.4.1
Attachment                               : Yes

Video
ID                                       : 1
Format                                   : AVC
Format/Info                              : Advanced Video Codec
Format profile                           : High@L4.1
Format settings, CABAC                   : Yes
Format settings, ReFrames                : 5 frames
Codec ID                                 : V_MPEG4/ISO/AVC
Duration                                 : 2h 13mn
Bit rate                                 : 10.4 Mbps
Width                                    : 1 920 pixels
Height                                   : 800 pixels
Display aspect ratio                     : 2.40:1
Frame rate                               : 23.976 fps
Color space                              : YUV
Chroma subsampling                       : 4:2:0
Bit depth                                : 8 bits
Scan type                                : Progressive
Bits/(Pixel*Frame)                       : 0.281
Stream size                              : 9.39 GiB (88%)
Writing library                          : x264 core 146 r2538 121396c
Encoding settings                        : cabac=1 / ref=5 / deblock=1:-3:-3 / analyse=0x3:0x113 / me=umh / subme=11 / psy=1 / psy_rd=1.00:0.00 / mixed_ref=1 / me_range=48 / chroma_me=1 / trellis=2 / 8x8dct=1 / cqm=0 / deadzone=21,11 / fast_pskip=0 / chroma_qp_offset=-2 / threads=12 / lookahead_threads=2 / sliced_threads=0 / nr=0 / decimate=1 / interlaced=0 / bluray_compat=0 / constrained_intra=0 / bframes=9 / b_pyramid=2 / b_adapt=2 / b_bias=0 / direct=3 / weightb=1 / open_gop=0 / weightp=2 / keyint=240 / keyint_min=23 / scenecut=40 / intra_refresh=0 / rc_lookahead=40 / rc=2pass / mbtree=1 / bitrate=10358 / ratetol=1.0 / qcomp=0.60 / qpmin=0 / qpmax=69 / qpstep=4 / cplxblur=20.0 / qblur=0.5 / vbv_maxrate=14000 / vbv_bufsize=14000 / nal_hrd=none / filler=0 / ip_ratio=1.40 / aq=1:1.00
Language                                 : English
Default                                  : Yes
Forced                                   : No

Audio #1
ID                                       : 2
Format                                   : AC-3
Format/Info                              : Audio Coding 3
Mode extension                           : CM (complete main)
Codec ID                                 : A_AC3
Duration                                 : 2h 13mn
Bit rate mode                            : Constant
Bit rate                                 : 448 Kbps
Channel(s)                               : 6 channels
Channel positions                        : Front: L C R, Side: L R, LFE
Sampling rate                            : 48.0 KHz
Bit depth                                : 16 bits
Compression mode                         : Lossy
Stream size                              : 427 MiB (4%)
Language                                 : Russian
Default                                  : Yes
Forced                                   : Yes

Audio #2
ID                                       : 3
Format                                   : AC-3
Format/Info                              : Audio Coding 3
Mode extension                           : CM (complete main)
Codec ID                                 : A_AC3
Duration                                 : 2h 13mn
Bit rate mode                            : Constant
Bit rate                                 : 640 Kbps
Channel(s)                               : 6 channels
Channel positions                        : Front: L C R, Side: L R, LFE
Sampling rate                            : 48.0 KHz
Bit depth                                : 16 bits
Compression mode                         : Lossy
Stream size                              : 610 MiB (6%)
Language                                 : English
Default                                  : No
Forced                                   : No

Menu
00:00:00.000                             : en:00:00:00.000
00:09:14.387                             : en:00:09:14.387
00:22:06.742                             : en:00:22:06.742
00:31:31.932                             : en:00:31:31.932
00:41:34.659                             : en:00:41:34.659
00:52:18.010                             : en:00:52:18.010
01:01:32.063                             : en:01:01:32.063
01:09:13.941                             : en:01:09:13.941
01:19:00.986                             : en:01:19:00.986
01:25:13.650                             : en:01:25:13.650
01:32:27.792                             : en:01:32:27.792
01:41:16.445                             : en:01:41:16.445
01:50:14.441                             : en:01:50:14.441
02:01:07.719                             : en:02:01:07.719
02:06:34.962                             : en:02:06:34.962


piratbit.pw



Скачать Крид: Наследие Рокки через торрент http://pic1.kartinco.top/images/10/ejpqs.jpg Скачать фильм Крид: Наследие Рокки через торрент бесплантно в хорошем качестве Описание: В центре внимания сын Аполло Крида - первого серьезного соперника Рокки Бальбоа на ринге, впоследствии ставшего лучшим другом ... 9.6 10 7
Info! Золотая раздача, скачанное не засчитывается.
Торрент: Зарегистрирован [2016-02-14 15:07] · скачан: 257 раз
Статус: √ проверено
Размер: 10.61 GB
Как cкачать? Как скачать Крид: Наследие Рокки через торрент | qTorrent

% Раздел Тема Автор DL S | L
R.G. Resident & PiratVoice - Фильмы, Видео [ 2.18 GB ] Крид: Наследие Рокки / Creed [2015 BDRip-AVC IDEAFILM] R.G.Resident Без рекламы schultz Скачать
1 | 0

28-11-2019 20:33  

Отключить всю рекламу на сайте

    Дорогой пользователь! Огромная просьба, поблагодарите релизера, оцените раздачу и оставьте свои комментарий, если Вы скачали Крид: Наследие Рокки через торрент бесплатно! Внесите свою лепту в развитие PiratBit!
    Комментировать посты могут только пользователи прошедшие не сложную регистрацию
    Показать сообщения:    

    Крид: Наследие Рокки через торрент
    Скачать бесплатно Крид: Наследие Рокки
    Крид: Наследие Рокки скачать торрент
    Крид: Наследие Рокки смотреть онлайн
    Cкачать фильм Крид: Наследие Рокки бесплатно
    Крид: Наследие Рокки скачать торрент в хорошем качестве
    Крид: Наследие Рокки смотреть онлайн бесплатно в хорошем качестве


    Вы не можете начинать темы
    Вы не можете отвечать на сообщения
    Вы не можете редактировать свои сообщения
    Вы не можете удалять свои сообщения
    Вы не можете голосовать в опросах
    Вы не можете прикреплять файлы к сообщениям
    Вы можете скачивать файлы