Ссылка на приватное зеркало всего за 1$. Внимание количество ограничено!!!

iTunes

1+1

iTunes

мы

MV0

1

WEB-DLRip

Джокер

Пифагор

Ведьмак / The Witcher сериал

iTunes

ПШазам

iTunes

Оно 2

iTunes

30
pack

Вам бонус

ВАЖНО

!!Акция!!

Alien_RageХит недели

RePack

Resident Evil 21

ИГРА 18+

pack

RePack

jed

!!Акция!!

Alien_Rage

RePack

fifa19

RePack

Assassins Creed: Odyssey

RePack

NEED FOR SPEED™ PAYBACK

4 сезон

9 сезон

Бесстыжие 9 сезон

Все сериалы

все сериалы на PB.wtf

RePack

FAR CRY 5
  

Розенкранц и Гильденштерн мертвы / Rosencrantz & Guildenstern Are Dead (Том Стоппард) [1990, драма, комедия, BDRip 1080p, 2 x MVO,2 x AVO] R.G.Resident piratbit.pw

Розенкранц и Гильденштерн мертвы через торрент piratbit.pw

Раздают: 1 [ 0 KB/s ]
Размер: 11.91 GB | Добавлен: 4 года назад | Торрент скачан:66 раз
Скачать  

13-02-2016 12:18 Розенкранц и Гильденштерн мертвы Скачать торрент  

Розенкранц и Гильденштерн мертвы / Rosencrantz & Guildenstern Are Dead
Год выпуска: 1990
Страна: Великобритания, США
Жанр: драма, комедия
Продолжительность: 01:57:43
Перевод: Профессиональный многоголосый (канал "Культура")
Профессиональный многоголосый (канал "РТР")
Авторский одноголосый (Сергей Кузнецов)
Авторский одноголосый (Владимир Завгородний)

Режиссер: Том Стоппард
В ролях:

Гари Олдман (Rosencrantz), Тим Рот (Guildenstern), Ричард Дрейфусс (The Player), Ливио Бадурина (Tragedian), Томислав Маретич (Tragedian), Маре Млачник (Tragedian), Срджан Сорик (Tragedian), Младен Васари (Tragedian), Зелько Вукмирича (Tragedian), Бранко Заврсан (Tragedian), Джоэнна Рот (Ophelia), Иэн Глен (Hamlet)
Описание:
Остроумное дополнение к `Гамлету` Шекспира, превращающее трагедию в фарс. Экранизация одноименной пьесы Тома Стоппарда. В этом произведении можно увидеть прообраз человеческой жизни во всём её комизме. Как любой другой человек, Р. и Г. появляются на свет, с уверенностью что у них есть предназначение в этой жизни, но не зная есть ли у него смысл. Чувствуя себя главными персонажами на исторической сцене, чувствуя себя творцами истории они пытаются понять и осмыслить происходящее вокруг них. Но, ни теоретический, ни практический склад ума ничем не могут им помочь. Р. и Г. даже в висельной петле, в преддверии смерти, остаются с вопросами на губах, зачем всё это? Почему? В чём был смысл всего что случилось? Зритель/Читатель безусловно поймёт, что события в фильме это события шекспировского «Гамлета». Но даже зная всю историю от начала и до конца не каждый возьмёт на себя смелость заявить «Да, я знаю о чём эта пьеса». Но Гамлет здесь так, фоном, скучный тип, не о нём речь.
Мировая премьера: 12 сентября 1990

MPAA: PG - Рекомендуется присутствие родителей
Качество: BDRip 1080p Rip by schultz R.G.Resident
Формат: MKV
Видео: AVC, 1920x1040 (16:9), 14000 kbps, 23,976 fps, 0,292 bpp
Аудио №1: русский / AC3 / 2.0 / 48 kHz / 192 kbps / 16 bit "Культура"
Аудио №2: русский / AC3 / 2.0 / 48 kHz / 192 kbps / 16 bit "РТР"
Аудио №3: русский / AC3 / 2.0 / 48 kHz / 192 kbps / 16 bit Сергей Кузнецов
Аудио №4: русский / AC3 / 2.0 / 48 kHz / 192 kbps / 16 bit Владимир Завгородний

Код:

General
Unique ID                                : 175305209127654705320001899427033015268 (0x83E28E1F65FE099780974260CB3463E4)
Complete name                            : D:\download\Rosencrantz Guildenstern Are Dead.1990.BDRip 1080p by schultz R.G.Resident.mkv
Format                                   : Matroska
Format version                           : Version 4 / Version 2
File size                                : 11.9 GiB
Duration                                 : 1h 57mn
Overall bit rate                         : 14.5 Mbps
Encoded date                             : UTC 2016-02-13 10:50:23
Writing application                      : mkvmerge v6.7.0 ('Back to the Ground') 64bit built on Jan  8 2014 15:10:52
Writing library                          : libebml v1.3.0 + libmatroska v1.4.1

Video
ID                                       : 1
Format                                   : AVC
Format/Info                              : Advanced Video Codec
Format profile                           : High@L4.1
Format settings, CABAC                   : Yes
Format settings, ReFrames                : 4 frames
Codec ID                                 : V_MPEG4/ISO/AVC
Duration                                 : 1h 57mn
Bit rate                                 : 14.0 Mbps
Width                                    : 1 920 pixels
Height                                   : 1 040 pixels
Display aspect ratio                     : 16:9
Frame rate                               : 23.976 fps
Color space                              : YUV
Chroma subsampling                       : 4:2:0
Bit depth                                : 8 bits
Scan type                                : Progressive
Bits/(Pixel*Frame)                       : 0.292
Stream size                              : 11.0 GiB (93%)
Writing library                          : x264 core 146 r2538 121396c
Encoding settings                        : cabac=1 / ref=4 / deblock=1:-3:-3 / analyse=0x3:0x113 / me=umh / subme=11 / psy=1 / psy_rd=1.00:0.00 / mixed_ref=1 / me_range=48 / chroma_me=1 / trellis=2 / 8x8dct=1 / cqm=0 / deadzone=21,11 / fast_pskip=0 / chroma_qp_offset=-2 / threads=12 / lookahead_threads=2 / sliced_threads=0 / nr=0 / decimate=1 / interlaced=0 / bluray_compat=0 / constrained_intra=0 / bframes=9 / b_pyramid=2 / b_adapt=2 / b_bias=0 / direct=3 / weightb=1 / open_gop=0 / weightp=2 / keyint=240 / keyint_min=23 / scenecut=40 / intra_refresh=0 / rc_lookahead=40 / rc=2pass / mbtree=1 / bitrate=14000 / ratetol=1.0 / qcomp=0.60 / qpmin=0 / qpmax=69 / qpstep=4 / cplxblur=20.0 / qblur=0.5 / vbv_maxrate=14000 / vbv_bufsize=14000 / nal_hrd=none / filler=0 / ip_ratio=1.40 / aq=1:1.00
Language                                 : English
Default                                  : Yes
Forced                                   : No

Audio #1
ID                                       : 2
Format                                   : AC-3
Format/Info                              : Audio Coding 3
Mode extension                           : CM (complete main)
Codec ID                                 : A_AC3
Duration                                 : 1h 57mn
Bit rate mode                            : Constant
Bit rate                                 : 192 Kbps
Channel(s)                               : 2 channels
Channel positions                        : Front: L R
Sampling rate                            : 48.0 KHz
Bit depth                                : 16 bits
Compression mode                         : Lossy
Stream size                              : 162 MiB (1%)
Language                                 : Russian
Default                                  : Yes
Forced                                   : No

Audio #2
ID                                       : 3
Format                                   : AC-3
Format/Info                              : Audio Coding 3
Mode extension                           : CM (complete main)
Codec ID                                 : A_AC3
Duration                                 : 1h 57mn
Bit rate mode                            : Constant
Bit rate                                 : 192 Kbps
Channel(s)                               : 2 channels
Channel positions                        : Front: L R
Sampling rate                            : 48.0 KHz
Bit depth                                : 16 bits
Compression mode                         : Lossy
Stream size                              : 162 MiB (1%)
Language                                 : Russian
Default                                  : No
Forced                                   : No

Audio #3
ID                                       : 4
Format                                   : AC-3
Format/Info                              : Audio Coding 3
Mode extension                           : CM (complete main)
Codec ID                                 : A_AC3
Duration                                 : 1h 57mn
Bit rate mode                            : Constant
Bit rate                                 : 192 Kbps
Channel(s)                               : 2 channels
Channel positions                        : Front: L R
Sampling rate                            : 48.0 KHz
Bit depth                                : 16 bits
Compression mode                         : Lossy
Stream size                              : 162 MiB (1%)
Language                                 : Russian
Default                                  : No
Forced                                   : No

Audio #4
ID                                       : 5
Format                                   : AC-3
Format/Info                              : Audio Coding 3
Mode extension                           : CM (complete main)
Codec ID                                 : A_AC3
Duration                                 : 1h 57mn
Bit rate mode                            : Constant
Bit rate                                 : 192 Kbps
Channel(s)                               : 2 channels
Channel positions                        : Front: L R
Sampling rate                            : 48.0 KHz
Bit depth                                : 16 bits
Compression mode                         : Lossy
Stream size                              : 162 MiB (1%)
Language                                 : Russian
Default                                  : No
Forced                                   : No


piratbit.pw



Скачать Розенкранц и Гильденштерн мертвы через торрент http://pic1.kartinco.top/images/10/ejpqs.jpg Скачать фильм Розенкранц и Гильденштерн мертвы через торрент бесплантно в хорошем качестве Описание: Остроумное дополнение к `Гамлету` Шекспира, превращающее трагедию в фарс. Экранизация одноименной пьесы Тома Стоппарда. В этом ... 10 10 3
Info! Золотая раздача, скачанное не засчитывается.
Торрент: Зарегистрирован [2016-02-13 12:18] · скачан: 66 раз
Статус: √ проверено
Размер: 11.91 GB
Как cкачать? Как скачать Розенкранц и Гильденштерн мертвы через торрент | qTorrent

28-11-2019 20:33  

Отключить всю рекламу на сайте

    Дорогой пользователь! Огромная просьба, поблагодарите релизера, оцените раздачу и оставьте свои комментарий, если Вы скачали Розенкранц и Гильденштерн мертвы через торрент бесплатно! Внесите свою лепту в развитие PiratBit!
    Комментировать посты могут только пользователи прошедшие не сложную регистрацию
    Показать сообщения:    

    Розенкранц и Гильденштерн мертвы через торрент
    Скачать бесплатно Розенкранц и Гильденштерн мертвы
    Розенкранц и Гильденштерн мертвы скачать торрент
    Розенкранц и Гильденштерн мертвы смотреть онлайн
    Cкачать фильм Розенкранц и Гильденштерн мертвы бесплатно
    Розенкранц и Гильденштерн мертвы скачать торрент в хорошем качестве
    Розенкранц и Гильденштерн мертвы смотреть онлайн бесплатно в хорошем качестве


    Вы не можете начинать темы
    Вы не можете отвечать на сообщения
    Вы не можете редактировать свои сообщения
    Вы не можете удалять свои сообщения
    Вы не можете голосовать в опросах
    Вы не можете прикреплять файлы к сообщениям
    Вы можете скачивать файлы