Ссылка на приватное зеркало всего за 1$. Внимание количество ограничено!!!

iTunes

1+1

iTunes

мы

MV0

1

WEB-DLRip

Джокер

Пифагор

Ведьмак / The Witcher сериал

iTunes

ПШазам

iTunes

Оно 2

iTunes

30
pack

Вам бонус

ВАЖНО

!!Акция!!

Alien_RageХит недели

RePack

Resident Evil 21

ИГРА 18+

pack

RePack

jed

!!Акция!!

Alien_Rage

RePack

fifa19

RePack

Assassins Creed: Odyssey

RePack

NEED FOR SPEED™ PAYBACK

4 сезон

9 сезон

Бесстыжие 9 сезон

Все сериалы

все сериалы на PB.wtf

RePack

FAR CRY 5
  

Тайна в их глазах / Secret in Their Eyes (Билли Рэй) [2015, триллер, детектив, BDRip-AVC от R.G. Resident] Дубляж] iTunes piratbit.pw

Тайна в их глазах через торрент piratbit.pw

Размер: 1.91 GB | Добавлен: 2 года 7 мес. назад | Торрент скачан:97 раз
Скачать  

11-02-2016 16:44 Тайна в их глазах Скачать торрент  

Тайна в их глазах / Secret in Their Eyes«Don't look away»

  • Год выхода: 2015
  • Жанр: триллер, детектив
  • Страна: США
  • Продолжительность: 01:51:39
  • Перевод: Дубляж - [iTunes]
  • Cубтитры: английские (Full)
  • Режиссер: Билли Рэй
  • В ролях:

    Чиветель Эджиофор (Ray), Николь Кидман (Claire), Джулия Робертс (Jess), Дин Норрис (Bumpy Willis), Альфред Молина (Martin Morales), Джо Коул (Marzin / Beckwith), Майкл Келли (Reg Siefert), Зои Грэм (Carolyn Cobb), Патрик Дэвис (Luis), Эйлин Фогарти (Receptionist-Angie), Линдон Смит (Kit), Ким Ярбро (Nan)


  • Привычное течение жизни дружной команды федералов нарушает страшная трагедия: жестоко убита дочь следователя Джесс... Доказательств недостаточно, и подозреваемого приходится отпустить. Но Рэй, напарник Джесс, безнадежно влюбленный в их начальницу, не оставляет попыток докопаться до истины. И вот спустя десятилетие появляется шанс раскрыть тайну гибели девушки. У правосудия, мести и любви нет сроков давности.

  • Качество: BDRip-AVC
  • Формат: MKV
  • Видео кодек: AVC
  • Аудио кодек: AC3
  • Видео: AVC, 1024x426 (2.40:1), 1616 kbps, 23,976 fps, 0,155 bpp
  • Аудио №1: русский / AC3 / 5.1 / 48 kHz / 384 kbps / 16 bit |Дубляж, iTunes|
  • Аудио №2: английский / AC3 / 5.1 / 48 kHz / 448 kbps / 16 bit
  • Навигация по главам: есть

    Код:

    Общее
    Уникальный идентификатор                 : 253092993064003556954695654775826028893 (0xBE67EFF9D129A59ABD69F39FA892195D)
    Полное имя                               : H:\torrent\film\Тайна в их глазах\Secret.in.Their.Eyes.2015.BDRip.AVC.R.G.Resident.mkv
    Формат                                   : Matroska
    Версия формата                           : Version 4 / Version 2
    Размер файла                             : 1,91 Гбайт
    Продолжительность                        : 1 ч. 51 м.
    Общий поток                              : 2449 Кбит/сек
    Название фильма                          : Secret in Their Eyes 2015 BDRip-AVC by R.G. Resident
    Дата кодирования                         : UTC 2016-02-23 10:37:49
    Программа кодирования                    : mkvmerge v8.9.0 ('Father Daughter') 64bit
    Библиотека кодирования                   : libebml v1.3.3 + libmatroska v1.4.4

    Видео
    Идентификатор                            : 1
    Формат                                   : AVC
    Формат/Информация                        : Advanced Video Codec
    Профиль формата                          : High@L4.1
    Параметр CABAC формата                   : Да
    Параметр ReFrames формата                : 11 кадров
    Идентификатор кодека                     : V_MPEG4/ISO/AVC
    Продолжительность                        : 1 ч. 51 м.
    Битрейт                                  : 1616 Кбит/сек
    Ширина                                   : 1024 пикселя
    Высота                                   : 426 пикселей
    Соотношение сторон                       : 2,40:1
    Режим частоты кадров                     : Постоянный
    Частота кадров                           : 23,976 (24000/1001) кадра/сек
    Цветовое пространство                    : YUV
    Субдискретизация насыщенности            : 4:2:0
    Битовая глубина                          : 8 бит
    Тип развёртки                            : Прогрессивная
    Бит/(Пиксели*Кадры)                      : 0.155
    Размер потока                            : 1,26 Гбайт (66%)
    Заголовок                                : -Lexx-
    Библиотека кодирования                   : x264 core 146 r2538 121396c
    Настройки программы                      : cabac=1 / ref=11 / deblock=1:-3:-3 / analyse=0x3:0x113 / me=umh / subme=11 / psy=1 / psy_rd=1.00:0.10 / mixed_ref=1 / me_range=48 / chroma_me=1 / trellis=2 / 8x8dct=1 / cqm=0 / deadzone=21,11 / fast_pskip=0 / chroma_qp_offset=-3 / threads=6 / lookahead_threads=2 / sliced_threads=0 / nr=0 / decimate=1 / interlaced=0 / bluray_compat=0 / constrained_intra=0 / bframes=12 / b_pyramid=2 / b_adapt=2 / b_bias=0 / direct=3 / weightb=1 / open_gop=0 / weightp=2 / keyint=240 / keyint_min=23 / scenecut=40 / intra_refresh=0 / rc=2pass / mbtree=0 / bitrate=1616 / ratetol=1.0 / qcomp=0.60 / qpmin=0 / qpmax=69 / qpstep=4 / cplxblur=20.0 / qblur=0.5 / ip_ratio=1.40 / pb_ratio=1.30 / aq=1:1.00
    Язык                                     : English
    Default                                  : Да
    Forced                                   : Нет

    Аудио #1
    Идентификатор                            : 2
    Формат                                   : AC-3
    Формат/Информация                        : Audio Coding 3
    Расширение режима                        : CM (complete main)
    Параметр Endianness формата              : Big
    Идентификатор кодека                     : A_AC3
    Продолжительность                        : 1 ч. 51 м.
    Вид битрейта                             : Постоянный
    Битрейт                                  : 384 Кбит/сек
    Каналы                                   : 6 каналов
    Расположение каналов                     : Front: L C R, Side: L R, LFE
    Частота                                  : 48,0 КГц
    Частота кадров                           : 31,250 кадров/сек (1536 spf)
    Метод сжатия                             : С потерями
    Размер потока                            : 306 Мбайт (16%)
    Заголовок                                : Дубляж - iTunes
    Язык                                     : Russian
    Default                                  : Да
    Forced                                   : Нет

    Аудио #2
    Идентификатор                            : 3
    Формат                                   : AC-3
    Формат/Информация                        : Audio Coding 3
    Расширение режима                        : CM (complete main)
    Параметр Endianness формата              : Big
    Идентификатор кодека                     : A_AC3
    Продолжительность                        : 1 ч. 51 м.
    Вид битрейта                             : Постоянный
    Битрейт                                  : 448 Кбит/сек
    Каналы                                   : 6 каналов
    Расположение каналов                     : Front: L C R, Side: L R, LFE
    Частота                                  : 48,0 КГц
    Частота кадров                           : 31,250 кадров/сек (1536 spf)
    Метод сжатия                             : С потерями
    Размер потока                            : 358 Мбайт (18%)
    Заголовок                                : Оригинал
    Язык                                     : English
    Default                                  : Нет
    Forced                                   : Нет

    Текст
    Идентификатор                            : 4
    Формат                                   : UTF-8
    Идентификатор кодека                     : S_TEXT/UTF8
    Идентификатор кодека/Информация          : UTF-8 Plain Text
    Продолжительность                        : 1 ч. 47 м.
    Битрейт                                  : 56 бит/сек
    Count of elements                        : 1333
    Размер потока                            : 44,3 Кбайт (0%)
    Заголовок                                : Full
    Язык                                     : English
    Default                                  : Нет
    Forced                                   : Нет

    Меню
    00:00:00.000                             : en:Chapter 1
    00:05:00.000                             : en:Chapter 2
    00:10:00.000                             : en:Chapter 3
    00:15:00.000                             : en:Chapter 4
    00:20:00.000                             : en:Chapter 5
    00:25:00.000                             : en:Chapter 6
    00:30:00.000                             : en:Chapter 7
    00:35:00.000                             : en:Chapter 8
    00:40:00.000                             : en:Chapter 9
    00:45:00.000                             : en:Chapter 10
    00:50:00.000                             : en:Chapter 11
    00:55:00.000                             : en:Chapter 12
    01:00:00.000                             : en:Chapter 13
    01:05:00.000                             : en:Chapter 14
    01:10:00.000                             : en:Chapter 15
    01:15:00.000                             : en:Chapter 16
    01:20:00.000                             : en:Chapter 17
    01:25:00.000                             : en:Chapter 18
    01:30:00.000                             : en:Chapter 19
    01:35:00.000                             : en:Chapter 20
    01:40:00.000                             : en:Chapter 21
    01:45:00.000                             : en:Chapter 22
    01:50:00.000                             : en:Chapter 23

    Скриншоты:


    © Оформление by -Lexx- piratbit.pw
    K-Lexx- писал(а):

    Торрент перезалит 23.02.2016, замена звука на дубляж iTunes.



  • Скачать Тайна в их глазах через торрент http://pic.kartinco.top/images/6/stazu.jpg Скачать фильм Тайна в их глазах через торрент бесплантно в хорошем качестве qw.png Привычное течение жизни дружной команды федералов нарушает страшная трагедия: жестоко убита дочь следователя Джесс... ... 8.5 10 19
    Info! Золотая раздача, скачанное не засчитывается.
    Торрент: Зарегистрирован [2017-07-13 12:51] · скачан: 97 раз
    Статус: √ проверено
    Размер: 1.91 GB
    Как cкачать? Как скачать Тайна в их глазах через торрент | qTorrent

    % Раздел Тема Автор DL S | L
    Фильмы 2015 [DVDrip, WEB-DLRip, HDrip] [ 747 MB ] Тайна в их глазах / Secret in Their Eyes [2015 HDRip] Leonardo'D Скачать
    1 | 0
    Фильмы 2015 [DVDrip, WEB-DLRip, HDrip] [ 2.16 GB ] Тайна в их глазах / Secret in Their Eyes [2015 HDRip ""] coc900 Скачать
    1 | 0
    Фильмы 2015 [DVDrip, WEB-DLRip, HDrip] [ 2.05 GB ] Тайна в их глазах / Secret in Their Eyes [2015 HDRip] ] $-DRON-$ Скачать
    1 | 0
    Фильмы 2015 [DVDrip, WEB-DLRip, HDrip] [ 2.13 GB ] Тайна в их глазах / Secret in Their Eyes [2015 BDRip-AVC] Dub potroks Скачать
    1 | 0
    Фильмы 2015 [DVDrip, WEB-DLRip, HDrip] [ 1.41 GB ] Тайна в их глазах / Secret in Their Eyes [2015 BDRip-AVC] Dub potroks Скачать
    2 | 0
    Фильмы [HD 720p, 1080p] (Хороший звук DUB, MVO) [ 5.95 GB ] Тайна в их глазах / Secret in Their Eyes [2015 BDRip 720p] ] $-DRON-$ Скачать
    1 | 0
    R.G. Resident & PiratVoice - Фильмы, Видео [ 8.37 GB ] Тайна в их глазах / Secret in Their Eyes [2015 BDRip 1080p ] schultz Скачать
    1 | 0


    Последний раз редактировалось: -Lexx- (2016-02-23 10:50), всего редактировалось 1 раз

    28-11-2019 20:33  

    Отключить всю рекламу на сайте

      Дорогой пользователь! Огромная просьба, поблагодарите релизера, оцените раздачу и оставьте свои комментарий, если Вы скачали Тайна в их глазах через торрент бесплатно! Внесите свою лепту в развитие PiratBit!
      Комментировать посты могут только пользователи прошедшие не сложную регистрацию
      Показать сообщения:    

      Тайна в их глазах через торрент
      Скачать бесплатно Тайна в их глазах
      Тайна в их глазах скачать торрент
      Тайна в их глазах смотреть онлайн
      Cкачать фильм Тайна в их глазах бесплатно
      Тайна в их глазах скачать торрент в хорошем качестве
      Тайна в их глазах смотреть онлайн бесплатно в хорошем качестве


      Вы не можете начинать темы
      Вы не можете отвечать на сообщения
      Вы не можете редактировать свои сообщения
      Вы не можете удалять свои сообщения
      Вы не можете голосовать в опросах
      Вы не можете прикреплять файлы к сообщениям
      Вы можете скачивать файлы