Ссылка на приватное зеркало всего за 1$. Внимание количество ограничено!!!

iTunes

1+1

iTunes

мы

MV0

1

WEB-DLRip

Джокер

Пифагор

Ведьмак / The Witcher сериал

iTunes

ПШазам

iTunes

Оно 2

iTunes

30
pack

Вам бонус

ВАЖНО

!!Акция!!

Alien_RageХит недели

RePack

Resident Evil 21

ИГРА 18+

pack

RePack

jed

!!Акция!!

Alien_Rage

RePack

fifa19

RePack

Assassins Creed: Odyssey

RePack

NEED FOR SPEED™ PAYBACK

4 сезон

9 сезон

Бесстыжие 9 сезон

Все сериалы

все сериалы на PB.wtf

RePack

FAR CRY 5
  

Узник замка Иф (Георгий Юнгвальд-Хилькевич) [1988 г., драма, приключения, история, DVDRip от R.G.Resident] piratbit.pw

Узник замка Иф через торрент piratbit.pw

Размер: 1.21 GB | Добавлен: 4 года назад | Торрент скачан:96 раз
Скачать  

10-02-2016 15:05 Узник замка Иф Скачать торрент  

Узник замка ИфГод выпуска: 1988
Выпущено: СССР, Франция
Жанр: Драма, приключения, история

Режиссёр: Георгий Юнгвальд-Хилькевич
В ролях: Виктор Авилов, Евгений Дворжецкий, Анна Самохина, Михаил Боярский, Арнис Лицитис, Алексей Жарков, Игорь Скляр, Нодира Мирзаева, Алексей Петренко, Светлана Смирнова

Продолжительность: 03:42:01
Перевод: Не требуется
Субтитры: Нет

Описание: По мотивам романа А. Дюма «Граф Монте-Кристо». В самый канун свадьбы с любимой девушкой Эдмон Дантес по ложному обвинению становится узником мрачного замка Иф.
Здесь ему предстоит томиться до конца дней своих, но отчаянная решимость спастись и счастливый случай помогают ему выбраться на волю. Сказочно разбогатев и превратившись в графа Монте-Кристо, он начинает мстить…



Рип от: Egorijj.Alien

Качество: DVDRip
Формат: MP4
Видео кодек: AVC
Аудио кодек: AAC
Видео: 650 kbps, 480x360 (4:3), 25 fps
Аудио: 128 kbps, 2 ch, 48,0 khz
General
Complete name : D:\Видео\Узник замка Иф mp4\1 Аббат Фариа.mp4
Format : MPEG-4
Format profile : Base Media
Codec ID : isom
File size : 364 MiB
Duration : 1h 4mn
Overall bit rate mode : Variable
Overall bit rate : 782 Kbps
Encoded date : UTC 2016-02-09 06:33:50
Tagged date : UTC 2016-02-09 06:33:50

Video
ID : 1
Format : AVC
Format/Info : Advanced Video Codec
Format profile : High@L2.2
Format settings, CABAC : Yes
Format settings, ReFrames : 8 frames
Codec ID : avc1
Codec ID/Info : Advanced Video Coding
Duration : 1h 4mn
Bit rate : 650 Kbps
Maximum bit rate : 3 183 Kbps
Width : 480 pixels
Height : 360 pixels
Display aspect ratio : 4:3
Frame rate mode : Constant
Frame rate : 25.000 fps
Color space : YUV
Chroma subsampling : 4:2:0
Bit depth : 8 bits
Scan type : Progressive
Bits/(Pixel*Frame) : 0.150
Stream size : 302 MiB (83%)
Writing library : x264 core 130 r2273 b3065e6
Encoding settings : cabac=1 / ref=8 / deblock=1:-1:-1 / analyse=0x3:0x133 / me=umh / subme=7 / psy=1 / psy_rd=1.00:0.10 / mixed_ref=1 / me_range=16 / chroma_me=1 / trellis=2 / 8x8dct=1 / cqm=0 / deadzone=21,11 / fast_pskip=0 / chroma_qp_offset=-3 / threads=3 / lookahead_threads=1 / sliced_threads=0 / nr=0 / decimate=1 / interlaced=0 / bluray_compat=0 / constrained_intra=0 / bframes=3 / b_pyramid=2 / b_adapt=2 / b_bias=0 / direct=3 / weightb=1 / open_gop=0 / weightp=2 / keyint=250 / keyint_min=25 / scenecut=40 / intra_refresh=0 / rc_lookahead=50 / rc=2pass / mbtree=1 / bitrate=650 / ratetol=1.0 / qcomp=0.60 / qpmin=0 / qpmax=69 / qpstep=4 / cplxblur=20.0 / qblur=0.5 / ip_ratio=1.40 / aq=1:1.00
Encoded date : UTC 2016-02-09 06:33:50
Tagged date : UTC 2016-02-09 06:34:07

Audio
ID : 2
Format : AAC
Format/Info : Advanced Audio Codec
Format profile : LC
Codec ID : 40
Duration : 1h 4mn
Bit rate mode : Variable
Bit rate : 128 Kbps
Maximum bit rate : 147 Kbps
Channel(s) : 2 channels
Channel positions : Front: L R
Sampling rate : 48.0 KHz
Compression mode : Lossy
Stream size : 59.5 MiB (16%)
Encoded date : UTC 2016-02-09 06:34:03
Tagged date : UTC 2016-02-09 06:34:07
piratbit.pw



Скачать Узник замка Иф через торрент http://i75.fastpic.ru/big/2016/0209/4b/7866291dab32c73f31fb411becc0104b.jpg Скачать фильм Узник замка Иф через торрент бесплантно в хорошем качестве Описание: По мотивам романа А. Дюма «Граф Монте-Кристо». В самый канун свадьбы с любимой девушкой Эдмон Дантес по ложному обвинению ... 10 10 3
Info! Золотая раздача, скачанное не засчитывается.
Торрент: Зарегистрирован [2016-02-10 15:05] · скачан: 96 раз
Статус: √ проверено
Размер: 1.21 GB
Как cкачать? Как скачать Узник замка Иф через торрент | qTorrent

% Раздел Тема Автор DL S | L
Кино СССР [ 3.28 GB ] Узник замка Иф / Uznik zamka If [1988 история ... DVDRip лицензия] Nolrav Скачать
1 | 0

28-11-2019 20:33  

Отключить всю рекламу на сайте

    Дорогой пользователь! Огромная просьба, поблагодарите релизера, оцените раздачу и оставьте свои комментарий, если Вы скачали Узник замка Иф через торрент бесплатно! Внесите свою лепту в развитие PiratBit!
    Комментировать посты могут только пользователи прошедшие не сложную регистрацию
    Показать сообщения:    

    Узник замка Иф через торрент
    Скачать бесплатно Узник замка Иф
    Узник замка Иф скачать торрент
    Узник замка Иф смотреть онлайн
    Cкачать фильм Узник замка Иф бесплатно
    Узник замка Иф скачать торрент в хорошем качестве
    Узник замка Иф смотреть онлайн бесплатно в хорошем качестве


    Вы не можете начинать темы
    Вы не можете отвечать на сообщения
    Вы не можете редактировать свои сообщения
    Вы не можете удалять свои сообщения
    Вы не можете голосовать в опросах
    Вы не можете прикреплять файлы к сообщениям
    Вы можете скачивать файлы