Ссылка на приватное зеркало всего за 1$. Внимание количество ограничено!!!

iTunes

1+1

iTunes

мы

MV0

1

WEB-DLRip

Джокер

Пифагор

Ведьмак / The Witcher сериал

iTunes

ПШазам

iTunes

Оно 2

iTunes

30
pack

Вам бонус

ВАЖНО

!!Акция!!

Alien_RageХит недели

RePack

Resident Evil 21

ИГРА 18+

pack

RePack

jed

!!Акция!!

Alien_Rage

RePack

fifa19

RePack

Assassins Creed: Odyssey

RePack

NEED FOR SPEED™ PAYBACK

4 сезон

9 сезон

Бесстыжие 9 сезон

Все сериалы

все сериалы на PB.wtf

RePack

FAR CRY 5
  

Достань меня, если сможешь / Reach Me (Джон Херцфелд) [2014, драма, триллер, комедия, BDRip 1080p, Авторский (одноголосый) А.Дольский] R.G.Resident piratbit.pw

Достань меня, если сможешь через торрент piratbit.pw

Размер: 7.73 GB | Добавлен: 4 года назад | Торрент скачан:29 раз
Скачать  

09-02-2016 08:08 Достань меня, если сможешь Скачать торрент  

Достань меня, если сможешь / Reach Me
««There's no stopping someone who will stop at nothing!»»

Год выпуска: 2014
Страна: США
Жанр: драма, триллер, комедия
Продолжительность: 01:32:13
Перевод: Авторский (одноголосый) А.Дольский
Субтитры: Русские (forced), английские
Режиссер: Джон Херцфелд
В ролях:

Сильвестр Сталлоне (Gerald), Томас Джейн (Wolfie), Кира Седжвик (Colette), Том Беренджер (Teddy), Нелли (E-Ruption), Дэнни Айелло (Father Paul), Терри Крюс (Wilson), Кевин Коннолли (Roger), Лорен Кохэн (Kate), Том Сайзмор (Frank), Омари Хардвик (Dominic), Дэвид О’Хара (Thumper)
Описание:
Драма развивается вокруг группы людей, каждый из которых как-то связан с книгой по самосовершенствованию, а ее автором является ведущий затворнический образ жизни бывший тренер футбольной команды.
Мировая премьера: 21 ноября 2014

MPAA: R - Лицам до 17 лет обязательно присутствие взрослого
Качество: BDRip 1080p Rip by schultz R.G.Resident
Формат: MKV
Видео: AVC, 1920x796 (2.40:1), 10956 kbps, 23,976 fps, 0,299 bpp
Аудио №1: AC3 / 5.1 / 48 kHz / 448 kbps / 16 bit А.Дольский
Аудио №2: AC3 / 5.1 / 48 kHz / 640 kbps / 16 bit Английский

Код:

General
Unique ID                                : 253593134926101528168483574061056135289 (0xBEC842DF9C374234A9BFA1B41C781079)
Complete name                            : D:\download\Reach Me.2014.BDRip 1080p by schultz R.G.Resident.mkv
Format                                   : Matroska
Format version                           : Version 4 / Version 2
File size                                : 7.73 GiB
Duration                                 : 1h 32mn
Overall bit rate                         : 12.0 Mbps
Encoded date                             : UTC 2016-02-09 06:53:49
Writing application                      : mkvmerge v6.7.0 ('Back to the Ground') 64bit built on Jan  8 2014 15:10:52
Writing library                          : libebml v1.3.0 + libmatroska v1.4.1

Video
ID                                       : 1
Format                                   : AVC
Format/Info                              : Advanced Video Codec
Format profile                           : High@L4.1
Format settings, CABAC                   : Yes
Format settings, ReFrames                : 5 frames
Codec ID                                 : V_MPEG4/ISO/AVC
Duration                                 : 1h 32mn
Bit rate                                 : 11.0 Mbps
Width                                    : 1 920 pixels
Height                                   : 796 pixels
Display aspect ratio                     : 2.40:1
Frame rate                               : 23.976 fps
Color space                              : YUV
Chroma subsampling                       : 4:2:0
Bit depth                                : 8 bits
Scan type                                : Progressive
Bits/(Pixel*Frame)                       : 0.299
Stream size                              : 6.88 GiB (89%)
Writing library                          : x264 core 146 r2538 121396c
Encoding settings                        : cabac=1 / ref=5 / deblock=1:-3:-3 / analyse=0x3:0x113 / me=umh / subme=11 / psy=1 / psy_rd=1.00:0.00 / mixed_ref=1 / me_range=48 / chroma_me=1 / trellis=2 / 8x8dct=1 / cqm=0 / deadzone=21,11 / fast_pskip=0 / chroma_qp_offset=-2 / threads=12 / lookahead_threads=2 / sliced_threads=0 / nr=0 / decimate=1 / interlaced=0 / bluray_compat=0 / constrained_intra=0 / bframes=9 / b_pyramid=2 / b_adapt=2 / b_bias=0 / direct=3 / weightb=1 / open_gop=0 / weightp=2 / keyint=240 / keyint_min=23 / scenecut=40 / intra_refresh=0 / rc_lookahead=40 / rc=2pass / mbtree=1 / bitrate=10956 / ratetol=1.0 / qcomp=0.60 / qpmin=0 / qpmax=69 / qpstep=4 / cplxblur=20.0 / qblur=0.5 / vbv_maxrate=14000 / vbv_bufsize=14000 / nal_hrd=none / filler=0 / ip_ratio=1.40 / aq=1:1.00
Language                                 : English
Default                                  : Yes
Forced                                   : No

Audio #1
ID                                       : 2
Format                                   : AC-3
Format/Info                              : Audio Coding 3
Mode extension                           : CM (complete main)
Codec ID                                 : A_AC3
Duration                                 : 1h 32mn
Bit rate mode                            : Constant
Bit rate                                 : 448 Kbps
Channel(s)                               : 6 channels
Channel positions                        : Front: L C R, Side: L R, LFE
Sampling rate                            : 48.0 KHz
Bit depth                                : 16 bits
Compression mode                         : Lossy
Stream size                              : 296 MiB (4%)
Default                                  : Yes
Forced                                   : No

Audio #2
ID                                       : 3
Format                                   : AC-3
Format/Info                              : Audio Coding 3
Mode extension                           : CM (complete main)
Codec ID                                 : A_AC3
Duration                                 : 1h 32mn
Bit rate mode                            : Constant
Bit rate                                 : 640 Kbps
Channel(s)                               : 6 channels
Channel positions                        : Front: L C R, Side: L R, LFE
Sampling rate                            : 48.0 KHz
Bit depth                                : 16 bits
Compression mode                         : Lossy
Stream size                              : 422 MiB (5%)
Language                                 : English
Default                                  : No
Forced                                   : No

Text #1
ID                                       : 4
Format                                   : UTF-8
Codec ID                                 : S_TEXT/UTF8
Codec ID/Info                            : UTF-8 Plain Text
Language                                 : Russian
Default                                  : Yes
Forced                                   : Yes

Text #2
ID                                       : 5
Format                                   : UTF-8
Codec ID                                 : S_TEXT/UTF8
Codec ID/Info                            : UTF-8 Plain Text
Language                                 : English
Default                                  : No
Forced                                   : No

Menu
00:00:00.000                             : en:00:00:00.000
00:08:26.798                             : en:00:08:26.798
00:15:45.403                             : en:00:15:45.403
00:23:27.448                             : en:00:23:27.448
00:29:37.859                             : en:00:29:37.859
00:37:21.406                             : en:00:37:21.406
00:48:45.005                             : en:00:48:45.005
00:57:04.129                             : en:00:57:04.129
01:04:23.568                             : en:01:04:23.568
01:10:32.437                             : en:01:10:32.437
01:16:08.147                             : en:01:16:08.147
01:24:53.630                             : en:01:24:53.630


piratbit.pw



Скачать Достань меня, если сможешь через торрент http://pic1.kartinco.top/images/10/ejpqs.jpg Скачать фильм Достань меня, если сможешь через торрент бесплантно в хорошем качестве Описание: Драма развивается вокруг группы людей, каждый из которых как-то связан с книгой по самосовершенствованию, а ее автором является ... 9 10 1
Info! Золотая раздача, скачанное не засчитывается.
Торрент: Зарегистрирован [2016-02-09 08:08] · скачан: 29 раз
Статус: √ проверено
Размер: 7.73 GB
Как cкачать? Как скачать Достань меня, если сможешь через торрент | qTorrent

% Раздел Тема Автор DL S | L
R.G. Resident & PiratVoice - Фильмы, Видео [ 1.46 GB ] Достань меня если сможешь / Reach Me [2014 BDRip-AVC Авторский А.Дольский] R.G.Resident schultz Скачать
1 | 0

28-11-2019 20:33  

Отключить всю рекламу на сайте

14-02-2016 13:21 Достань меня, если сможешь Скачать торрент  

Спасибо за неплохой фильм в отличном качестве!!! piratbit.pw



    Дорогой пользователь! Огромная просьба, поблагодарите релизера, оцените раздачу и оставьте свои комментарий, если Вы скачали Достань меня, если сможешь через торрент бесплатно! Внесите свою лепту в развитие PiratBit!
    Комментировать посты могут только пользователи прошедшие не сложную регистрацию
    Показать сообщения:    

    Достань меня, если сможешь через торрент
    Скачать бесплатно Достань меня, если сможешь
    Достань меня, если сможешь скачать торрент
    Достань меня, если сможешь смотреть онлайн
    Cкачать фильм Достань меня, если сможешь бесплатно
    Достань меня, если сможешь скачать торрент в хорошем качестве
    Достань меня, если сможешь смотреть онлайн бесплатно в хорошем качестве


    Вы не можете начинать темы
    Вы не можете отвечать на сообщения
    Вы не можете редактировать свои сообщения
    Вы не можете удалять свои сообщения
    Вы не можете голосовать в опросах
    Вы не можете прикреплять файлы к сообщениям
    Вы можете скачивать файлы