Ссылка на приватное зеркало всего за 1$. Внимание количество ограничено!!!

iTunes

1+1

iTunes

мы

MV0

1

WEB-DLRip

Джокер

Пифагор

Ведьмак / The Witcher сериал

iTunes

ПШазам

iTunes

Оно 2

iTunes

30
pack

Вам бонус

ВАЖНО

!!Акция!!

Alien_RageХит недели

RePack

Resident Evil 21

ИГРА 18+

pack

RePack

jed

!!Акция!!

Alien_Rage

RePack

fifa19

RePack

Assassins Creed: Odyssey

RePack

NEED FOR SPEED™ PAYBACK

4 сезон

9 сезон

Бесстыжие 9 сезон

Все сериалы

все сериалы на PB.wtf

RePack

FAR CRY 5
  

Он – дракон (Индар Джендубаев) [2015, фэнтези, BDRip 1080p, Оригинальный Лицензия BD RUS] R.G.Resident piratbit.pw

Он – дракон через торрент piratbit.pw

Размер: 7.65 GB | Добавлен: 4 года назад | Торрент скачан:375 раз
Скачать  

06-02-2016 01:32 Он – дракон Скачать торрент  

Он – дракон
««Любить страшно»»

Год выпуска: 2015
Страна: Россия
Жанр: фэнтези
Продолжительность: 01:47:04
Перевод: Оригинальный [Лицензия BD RUS]
Режиссер: Индар Джендубаев
В ролях:

Мария Поезжаева (Мирослава), Матвей Лыков (Арман), Станислав Любшин (князь), Иева Андреевайте (Ярослава), Петр Романов (Игорь), Андрей Лебединский (Кормчий), Марта Тимофеева (дочь Миры и Армана), Иво Господинов (Арман мальчик), Егор Зубарчук (отец Армана), Виктория Рунцова (невеста 1), Анастасия Дубровина (невеста 2), Алена Чехова (невеста 3)
Описание:
В разгар свадьбы княжну Мирославу похищает дракон, унося в свой замок на острове. В прошлом остались родные, жених, теперь только каменный плен в компании прекрасного Армана... но кто он и как оказался на острове? Мира поймет это слишком поздно: любовь к нему, человеку-дракону, откроет ей горькую истину - любить страшно.
Мировая премьера: 4 декабря 2015

Качество: BDRip 1080p Rip by schultz R.G.Resident
Формат: MKV
Видео: AVC, 1920x816 (2.35:1), 8113 kbps, 24 fps, 0,216 bpp
Аудио №1: русский / AC3 / 5.1 / 48 kHz / 640 kbps / 16 bit
Аудио №2: русский / DTS / 5.1 / 48 kHz / 1510 kbps / 24 bit

Код:

General
Unique ID                                : 239984961073617445784510355983440930116 (0xB48B6C1A1C856181A678C2062D5DE544)
Complete name                            : D:\download\ON_DRAKON.2015.BDRip 1080p by schultz R.G.Resident.mkv
Format                                   : Matroska
Format version                           : Version 4 / Version 2
File size                                : 7.65 GiB
Duration                                 : 1h 47mn
Overall bit rate                         : 10.2 Mbps
Encoded date                             : UTC 2016-02-06 00:44:44
Writing application                      : mkvmerge v6.7.0 ('Back to the Ground') 64bit built on Jan  8 2014 15:10:52
Writing library                          : libebml v1.3.0 + libmatroska v1.4.1

Video
ID                                       : 1
Format                                   : AVC
Format/Info                              : Advanced Video Codec
Format profile                           : High@L4.1
Format settings, CABAC                   : Yes
Format settings, ReFrames                : 5 frames
Codec ID                                 : V_MPEG4/ISO/AVC
Duration                                 : 1h 47mn
Bit rate                                 : 8 113 Kbps
Width                                    : 1 920 pixels
Height                                   : 816 pixels
Display aspect ratio                     : 2.35:1
Frame rate                               : 24.000 fps
Color space                              : YUV
Chroma subsampling                       : 4:2:0
Bit depth                                : 8 bits
Scan type                                : Progressive
Bits/(Pixel*Frame)                       : 0.216
Stream size                              : 5.89 GiB (77%)
Writing library                          : x264 core 146 r2538 121396c
Encoding settings                        : cabac=1 / ref=5 / deblock=1:-3:-3 / analyse=0x3:0x113 / me=umh / subme=11 / psy=1 / psy_rd=1.00:0.00 / mixed_ref=1 / me_range=48 / chroma_me=1 / trellis=2 / 8x8dct=1 / cqm=0 / deadzone=21,11 / fast_pskip=0 / chroma_qp_offset=-2 / threads=12 / lookahead_threads=2 / sliced_threads=0 / nr=0 / decimate=1 / interlaced=0 / bluray_compat=0 / constrained_intra=0 / bframes=9 / b_pyramid=2 / b_adapt=2 / b_bias=0 / direct=3 / weightb=1 / open_gop=0 / weightp=2 / keyint=240 / keyint_min=23 / scenecut=40 / intra_refresh=0 / rc_lookahead=40 / rc=2pass / mbtree=1 / bitrate=8113 / ratetol=1.0 / qcomp=0.60 / qpmin=0 / qpmax=69 / qpstep=4 / cplxblur=20.0 / qblur=0.5 / vbv_maxrate=14000 / vbv_bufsize=14000 / nal_hrd=none / filler=0 / ip_ratio=1.40 / aq=1:1.00
Language                                 : English
Default                                  : Yes
Forced                                   : No

Audio #1
ID                                       : 2
Format                                   : AC-3
Format/Info                              : Audio Coding 3
Mode extension                           : CM (complete main)
Codec ID                                 : A_AC3
Duration                                 : 1h 47mn
Bit rate mode                            : Constant
Bit rate                                 : 640 Kbps
Channel(s)                               : 6 channels
Channel positions                        : Front: L C R, Side: L R, LFE
Sampling rate                            : 48.0 KHz
Bit depth                                : 16 bits
Compression mode                         : Lossy
Stream size                              : 490 MiB (6%)
Language                                 : Russian
Default                                  : Yes
Forced                                   : No

Audio #2
ID                                       : 3
Format                                   : DTS
Format/Info                              : Digital Theater Systems
Codec ID                                 : A_DTS
Duration                                 : 1h 47mn
Bit rate mode                            : Constant
Bit rate                                 : 1 510 Kbps
Channel(s)                               : 6 channels
Channel positions                        : Front: L C R, Side: L R, LFE
Sampling rate                            : 48.0 KHz
Bit depth                                : 24 bits
Compression mode                         : Lossy
Stream size                              : 1.13 GiB (15%)
Language                                 : Russian
Default                                  : No
Forced                                   : No


piratbit.pw



Скачать Он – дракон через торрент http://pic1.kartinco.top/images/10/ejpqs.jpg Скачать фильм Он – дракон через торрент бесплантно в хорошем качестве Описание: В разгар свадьбы княжну Мирославу похищает дракон, унося в свой замок на острове. В прошлом остались родные, жених, теперь только ... 9.7 10 7
Info! Золотая раздача, скачанное не засчитывается.
Торрент: Зарегистрирован [2016-02-06 01:32] · скачан: 375 раз
Статус: √ проверено
Размер: 7.65 GB
Как cкачать? Как скачать Он – дракон через торрент | qTorrent

% Раздел Тема Автор DL S | L
R.G. Resident & PiratVoice - Фильмы, Видео [ 376 MB ] Поцелуй дракона / Kiss of the Dragon [2001 HDRip | КПК ] DUB Cтрана Скачать
1 | 0
R.G. Resident & PiratVoice - Фильмы, Видео [ 1.91 GB ] Пит и его дракон / Pete's Dragon [2016 BDRip-AVC] - [BD CEE] R.G.Resident schultz Скачать
1 | 0
R.G. Resident & PiratVoice - Фильмы, Видео [ 3.8 GB ] Пит и его дракон / Pete's Dragon [2016 BDRip 720p] - [BD CEE] R.G.Resident schultz Скачать
2 | 0
R.G. Resident & PiratVoice - Фильмы, Видео [ 1.46 GB ] Он – дракон [2015 WEB-DLRip-AVC Оригинальный R.G.Resident schultz Скачать
1 | 0

28-11-2019 20:33  

Отключить всю рекламу на сайте


06-02-2016 07:51 Он – дракон Скачать торрент  

"но кто он и как оказался на острове?" ЛОЛ!piratbit.pw



    Дорогой пользователь! Огромная просьба, поблагодарите релизера, оцените раздачу и оставьте свои комментарий, если Вы скачали Он – дракон через торрент бесплатно! Внесите свою лепту в развитие PiratBit!
    Комментировать посты могут только пользователи прошедшие не сложную регистрацию
    Показать сообщения:    

    Он – дракон через торрент
    Скачать бесплатно Он – дракон
    Он – дракон скачать торрент
    Он – дракон смотреть онлайн
    Cкачать фильм Он – дракон бесплатно
    Он – дракон скачать торрент в хорошем качестве
    Он – дракон смотреть онлайн бесплатно в хорошем качестве


    Вы не можете начинать темы
    Вы не можете отвечать на сообщения
    Вы не можете редактировать свои сообщения
    Вы не можете удалять свои сообщения
    Вы не можете голосовать в опросах
    Вы не можете прикреплять файлы к сообщениям
    Вы можете скачивать файлы