Ссылка на приватное зеркало всего за 1$. Внимание количество ограничено!!!

iTunes

1+1

iTunes

мы

MV0

1

WEB-DLRip

Джокер

Пифагор

Ведьмак / The Witcher сериал

iTunes

ПШазам

iTunes

Оно 2

iTunes

30
pack

Вам бонус

ВАЖНО

!!Акция!!

Alien_RageХит недели

RePack

Resident Evil 21

ИГРА 18+

pack

RePack

jed

!!Акция!!

Alien_Rage

RePack

fifa19

RePack

Assassins Creed: Odyssey

RePack

NEED FOR SPEED™ PAYBACK

4 сезон

9 сезон

Бесстыжие 9 сезон

Все сериалы

все сериалы на PB.wtf

RePack

FAR CRY 5
  

Страна чудес (Дмитрий Дьяченко, Максим Свешников) [2015, комедия, BDRip 1080p, Оригинальный Лицензия] R.G.Resident piratbit.pw

Страна чудес через торрент piratbit.pw

Размер: 6.84 GB | Добавлен: 4 года назад | Торрент скачан:105 раз
Скачать  

02-02-2016 12:16 Страна чудес Скачать торрент  

Страна чудес
««Мы такие одни во Вселенной»»

Год выпуска: 2015
Страна: Россия
Жанр: комедия
Продолжительность: 01:23:11
Перевод: Оригинальный Лицензия
Режиссер: Дмитрий Дьяченко, Максим Свешников
В ролях:

Елена Яковлева, Федор Добронравов, Александр Паль, Олеся Железняк, Сергей Лавыгин, Грант Тохатян, Ольга Лерман, Тимофей Трибунцев, Иван Добронравов, Анна Назарова, Евгения Розанова (Марина), Светлана Смирнова-Марцинкевич (Маша)
Описание:
Герои фильма - жители самых разных уголков нашей страны, самые обычные люди, с которыми случаются самые необычные вещи, просто чудеса какие-то.
Семье пожарных Семёну и Любе из Костромы выпадает шанс осуществить заветную мечту: поехать в Москву на любимую программу «Поле Чудес», где им предстоит сделать выбор всей жизни «приз или деньги?». Неопытный ППСник, но опытный неудачник Саня должен не только пережить свой первый день в патруле, но ещё принять роды у своей жены и реанимировать своего напарника. Четвёрка новоиспечённых приятелей должна во что бы то ни стало в нелётную погоду улететь в Москву, а пара юных влюблённых каким-то непостижимым способом - примирить своих непримиримых родителей. А Валере вообще предстоит решить дилемму: спасать человечество от всемирного потопа или просто улететь с дружками по караоке - пришельцами, на их cтареньком НЛО?
Всё это может случиться только раз в году, 31 декабря! И только у нас! Всё-таки... Мы такие одни во вселенной.

Качество: BDRip 1080p Rip by schultz R.G.Resident
Формат: MKV
Видео: AVC, 1920x804 (2.40:1), 10280 kbps, 24 fps, 0,277 bpp
Аудио: DTS / 5.1 / 48 kHz / 1510 kbps / 24 bit

Код:

General
Unique ID                                : 232964106256140722783465257478904976972 (0xAF43413BEC6F1C1E92359EC3AD55964C)
Complete name                            : D:\download\Strana cudes.2015.BDRip 1080р by schultz R.G.Resident.mkv
Format                                   : Matroska
Format version                           : Version 4 / Version 2
File size                                : 6.84 GiB
Duration                                 : 1h 23mn
Overall bit rate                         : 11.8 Mbps
Encoded date                             : UTC 2016-02-02 11:14:08
Writing application                      : mkvmerge v6.7.0 ('Back to the Ground') 64bit built on Jan  8 2014 15:10:52
Writing library                          : libebml v1.3.0 + libmatroska v1.4.1
DURATION                                 : 01:23:11.190000000
NUMBER_OF_FRAMES                         : 467924
NUMBER_OF_BYTES                          : 941463088
_STATISTICS_WRITING_APP                  : mkvmerge v8.3.0 ('Over the Horizon') 64bit
_STATISTICS_WRITING_DATE_UTC             : 2016-02-01 13:27:01
_STATISTICS_TAGS                         : BPS DURATION NUMBER_OF_FRAMES NUMBER_OF_BYTES

Video
ID                                       : 1
Format                                   : AVC
Format/Info                              : Advanced Video Codec
Format profile                           : High@L4.1
Format settings, CABAC                   : Yes
Format settings, ReFrames                : 5 frames
Codec ID                                 : V_MPEG4/ISO/AVC
Duration                                 : 1h 23mn
Bit rate                                 : 10.3 Mbps
Width                                    : 1 920 pixels
Height                                   : 804 pixels
Display aspect ratio                     : 2.40:1
Frame rate                               : 24.000 fps
Color space                              : YUV
Chroma subsampling                       : 4:2:0
Bit depth                                : 8 bits
Scan type                                : Progressive
Bits/(Pixel*Frame)                       : 0.277
Stream size                              : 5.83 GiB (85%)
Writing library                          : x264 core 146 r2538 121396c
Encoding settings                        : cabac=1 / ref=5 / deblock=1:-3:-3 / analyse=0x3:0x113 / me=umh / subme=11 / psy=1 / psy_rd=1.00:0.00 / mixed_ref=1 / me_range=48 / chroma_me=1 / trellis=2 / 8x8dct=1 / cqm=0 / deadzone=21,11 / fast_pskip=0 / chroma_qp_offset=-2 / threads=12 / lookahead_threads=2 / sliced_threads=0 / nr=0 / decimate=1 / interlaced=0 / bluray_compat=0 / constrained_intra=0 / bframes=9 / b_pyramid=2 / b_adapt=2 / b_bias=0 / direct=3 / weightb=1 / open_gop=0 / weightp=2 / keyint=240 / keyint_min=23 / scenecut=40 / intra_refresh=0 / rc_lookahead=40 / rc=2pass / mbtree=1 / bitrate=10280 / ratetol=1.0 / qcomp=0.60 / qpmin=0 / qpmax=69 / qpstep=4 / cplxblur=20.0 / qblur=0.5 / vbv_maxrate=14000 / vbv_bufsize=14000 / nal_hrd=none / filler=0 / ip_ratio=1.40 / aq=1:1.00
Language                                 : English
Default                                  : Yes
Forced                                   : No

Audio
ID                                       : 2
Format                                   : DTS
Format/Info                              : Digital Theater Systems
Codec ID                                 : A_DTS
Duration                                 : 1h 23mn
Bit rate mode                            : Constant
Bit rate                                 : 1 510 Kbps
Channel(s)                               : 6 channels
Channel positions                        : Front: L C R, Side: L R, LFE
Sampling rate                            : 48.0 KHz
Bit depth                                : 24 bits
Compression mode                         : Lossy
Stream size                              : 898 MiB (13%)
Default                                  : Yes
Forced                                   : No


piratbit.pw



Скачать Страна чудес через торрент http://pic1.kartinco.top/images/10/ejpqs.jpg Скачать фильм Страна чудес через торрент бесплантно в хорошем качестве Описание: Герои фильма - жители самых разных уголков нашей страны, самые обычные люди, с которыми случаются самые необычные вещи, просто ... 10 10 8
Info! Золотая раздача, скачанное не засчитывается.
Торрент: Зарегистрирован [2016-02-02 12:16] · скачан: 105 раз
Статус: √ проверено
Размер: 6.84 GB
Как cкачать? Как скачать Страна чудес через торрент | qTorrent

% Раздел Тема Автор DL S | L
R.G. Resident & PiratVoice - Фильмы, Видео [ 1.46 GB ] Страна чудес [2015 BDRip-AVC Оригинальный ] R.G.Resident schultz Скачать
1 | 0

28-11-2019 20:33  

Отключить всю рекламу на сайте

02-02-2016 13:51 Страна чудес Скачать торрент  

благодарю за фильм piratbit.pw



04-02-2016 05:23 Страна чудес Скачать торрент  

Вот это у.г снял режиссёр"О чём говорят мужчины"?...Да ещё и Квартет И снялись?Не верю!Не могли они так убого сыграть!Где этот искромётный юмор и интереснейшие диалоги,коими они всегда славились,начиная со"Дня Выборов"?Это надо же так было опуститься до банального ремесленничества.Если это были Квартет И,то я точно-"бээмвэтер"....Печаль.piratbit.pw



    Дорогой пользователь! Огромная просьба, поблагодарите релизера, оцените раздачу и оставьте свои комментарий, если Вы скачали Страна чудес через торрент бесплатно! Внесите свою лепту в развитие PiratBit!
    Комментировать посты могут только пользователи прошедшие не сложную регистрацию
    Показать сообщения:    

    Страна чудес через торрент
    Скачать бесплатно Страна чудес
    Страна чудес скачать торрент
    Страна чудес смотреть онлайн
    Cкачать фильм Страна чудес бесплатно
    Страна чудес скачать торрент в хорошем качестве
    Страна чудес смотреть онлайн бесплатно в хорошем качестве


    Вы не можете начинать темы
    Вы не можете отвечать на сообщения
    Вы не можете редактировать свои сообщения
    Вы не можете удалять свои сообщения
    Вы не можете голосовать в опросах
    Вы не можете прикреплять файлы к сообщениям
    Вы можете скачивать файлы