1 сезон

1 сезон

iTunes

1

КиноПоиск HD

Кинопоиск HD

iTunes

13

1 сезон

RePack

30

Ultimate

ВАЖНО

ИГРА 18+

pack

RePack

MK11
pack

Легкие деньги

RePack

jed

RePack

fifa19

RePack

RDR2

RePack

NEED FOR SPEED™ PAYBACK

4 сезон

9 сезон

Бесстыжие 9 сезон

Все сериалы

все сериалы на PB.wtf

RePack

FAR CRY 5
  
Magnet ссылка

Ограбление / Robbery (Питер Йетс) [1967, драма, криминал, детектив, BDRip 720p by msltel] AVO piratbit.pw

Ограбление через торрент piratbit.pw

Размер: 4.57 GB | Добавлен: 5 лет 2 мес. назад | Торрент скачан:0 раз
Скачать  

29-01-2016 06:50 Ограбление Скачать торрент  

Название: Ограбление
Оригинальное название: Robbery
Год выпуска: 1967
Страна: Великобритания
Жанр: драма, криминал, детектив
Продолжительность: 01:54:09
Перевод: авторский

Режиссёр: Питер Йетс

В ролях: Стенли Бэйкер, Джоанна Петтет, Джеймс Бут, Фрэнк Финлей, Бэрри Фостер, Уильям Марлоу, Джордж Сьюэлл, Глинн Эдвардс, Майкл МакСтэй

Описание: После успешного грабежа алмазов в Лондоне криминальный гений Пол Клифтон решает совершить преступление века - кражу трёх миллионов фунтов с королевского почтового поезда, направляющегося из Глазго в Лондон. Он пытается убедить членов банды строго следовать его плану ограбления, но они возражают против вывоза всех денег для дележки в Швейцарию. Клифтон соглашается разделить их на британской земле, используя подземный бункер на заброшенном аэродроме...



Качество: BDRip 720p Сравнение с исходником
Формат: MKV
Видео: MPEG-4 AVC, 5343 Кбит/с, 1200x720, 24 кадр/с
Аудио 1: русский, AC3, 192 kbps, 2 ch, 48 kHz [авторский, Алексей Михалёв]
Аудио 2: английский, AC3, 192 kbps, 2 ch, 48 kHz [оригинал]
Субтитры: английские (для слабослышащих)
Общее
Уникальный идентификатор : 245023133155898862128383788641277200970 (0xB855BD29F1767C5DACEC792C2AE84A4A)
Полное имя : D:\Video\Ограбление.1967.BDRip.720p.mkv
Формат : Matroska
Версия формата : Version 4 / Version 2
Размер файла : 4,57 Гбайт
Продолжительность : 1 ч. 54 м.
Общий поток : 5729 Кбит/сек
Дата кодирования : UTC 2016-01-29 03:23:31
Программа кодирования : mkvmerge v8.2.0 ('World of Adventure') 64bit
Библиотека кодирования : libebml v1.3.1 + libmatroska v1.4.2

Видео
Идентификатор : 1
Формат : AVC
Формат/Информация : Advanced Video Codec
Профиль формата : High@L4.1
Параметр CABAC формата : Да
Параметр ReFrames формата : 9 кадров
Идентификатор кодека : V_MPEG4/ISO/AVC
Продолжительность : 1 ч. 54 м.
Битрейт : 5343 Кбит/сек
Ширина : 1200 пикселей
Высота : 720 пикселей
Соотношение сторон : 5:3
Режим частоты кадров : Постоянный
Частота кадров : 24,000 кадра/сек
Цветовое пространство : YUV
Субдискретизация насыщенности : 4:2:0
Битовая глубина : 8 бит
Тип развёртки : Прогрессивная
Бит/(Пиксели*Кадры) : 0.258
Размер потока : 4,26 Гбайт (93%)
Библиотека кодирования : x264 core 146 r2538 121396c
Настройки программы : cabac=1 / ref=9 / deblock=1:-3:-3 / analyse=0x3:0x113 / me=umh / subme=10 / psy=1 / psy_rd=1.00:0.15 / mixed_ref=1 / me_range=32 / chroma_me=1 / trellis=2 / 8x8dct=1 / cqm=0 / deadzone=21,11 / fast_pskip=1 / chroma_qp_offset=-3 / threads=6 / lookahead_threads=1 / sliced_threads=0 / nr=0 / decimate=1 / interlaced=0 / bluray_compat=0 / constrained_intra=0 / bframes=8 / b_pyramid=2 / b_adapt=2 / b_bias=0 / direct=1 / weightb=1 / open_gop=0 / weightp=2 / keyint=230 / keyint_min=23 / scenecut=40 / intra_refresh=0 / rc_lookahead=40 / rc=crf / mbtree=0 / crf=18.7 / qcomp=0.60 / qpmin=0 / qpmax=69 / qpstep=4 / vbv_maxrate=40000 / vbv_bufsize=50000 / crf_max=0.0 / nal_hrd=none / filler=0 / ip_ratio=1.40 / pb_ratio=1.30 / aq=1:1.00
Язык : English
Default : Да
Forced : Нет

Аудио #1
Идентификатор : 2
Формат : AC-3
Формат/Информация : Audio Coding 3
Расширение режима : CM (complete main)
Параметр Endianness формата : Big
Идентификатор кодека : A_AC3
Продолжительность : 1 ч. 54 м.
Вид битрейта : Постоянный
Битрейт : 192 Кбит/сек
Каналы : 2 канала
Расположение каналов : Front: L R
Частота : 48,0 КГц
Частота кадров : 31,250 кадров/сек (1536 spf)
Метод сжатия : С потерями
Размер потока : 157 Мбайт (3%)
Заголовок : AVO (Алексей Михалёв)
Язык : Russian
Default : Да
Forced : Нет

Аудио #2
Идентификатор : 3
Формат : AC-3
Формат/Информация : Audio Coding 3
Расширение режима : CM (complete main)
Параметр Endianness формата : Big
Идентификатор кодека : A_AC3
Продолжительность : 1 ч. 54 м.
Вид битрейта : Постоянный
Битрейт : 192 Кбит/сек
Каналы : 2 канала
Расположение каналов : Front: L R
Частота : 48,0 КГц
Частота кадров : 31,250 кадров/сек (1536 spf)
Метод сжатия : С потерями
Размер потока : 157 Мбайт (3%)
Заголовок : Original
Язык : English
Default : Нет
Forced : Нет

Текст
Идентификатор : 4
Формат : UTF-8
Идентификатор кодека : S_TEXT/UTF8
Идентификатор кодека/Информация : UTF-8 Plain Text
Продолжительность : 1 ч. 53 м.
Битрейт : 44 бит/сек
Count of elements : 1216
Размер потока : 37,0 Кбайт (0%)
Заголовок : английский
Язык : English
Default : Нет
Forced : Нет
piratbit.pw



Скачать Ограбление через торрент http://i65.fastpic.ru/big/2016/0128/e0/dfe682f7668d66ef9fc2e72228d50fe0.jpg Скачать фильм Ограбление через торрент бесплантно в хорошем качестве Описание: После успешного грабежа алмазов в Лондоне криминальный гений Пол Клифтон решает совершить преступление века - кражу трёх ... 10 10 1
Info! Золотая раздача, скачанное не засчитывается.
Торрент: Зарегистрирован [2016-01-29 06:50] · скачан: 0 раз
Статус: √ проверено
Размер: 4.57 GB
Как cкачать? Как скачать Ограбление через торрент | UTorrent

% Раздел Тема Автор DL S | L
Фильмы с авторской озвучкой [ 12.68 GB ] Ограбление / Robbery [1967 BDRip 1080p by msltel] AVO msltel Скачать
1 | 0
Фильмы с авторской озвучкой [ 2.33 GB ] Ограбление / Robbery [1967 BDRip AVC by msltel] AVO msltel Скачать
1 | 0
Фильмы с авторской озвучкой [ 1.46 GB ] Ограбление / Robbery [1967 BDRip] [AVO] killermax2013 Скачать
1 | 0

28-11-2019 20:33  

Отключить всю рекламу на сайте

    Дорогой пользователь! Огромная просьба, поблагодарите релизера, оцените раздачу и оставьте свои комментарий, если Вы скачали Ограбление через торрент бесплатно! Внесите свою лепту в развитие PiratBit!
    Комментировать посты могут только пользователи прошедшие не сложную регистрацию
    Показать сообщения:    

    Ограбление через торрент
    Скачать бесплатно Ограбление
    Ограбление скачать торрент
    Ограбление смотреть онлайн
    Cкачать фильм Ограбление бесплатно
    Ограбление скачать торрент в хорошем качестве
    Ограбление смотреть онлайн бесплатно в хорошем качестве


    Вы не можете начинать темы
    Вы не можете отвечать на сообщения
    Вы не можете редактировать свои сообщения
    Вы не можете удалять свои сообщения
    Вы не можете голосовать в опросах
    Вы не можете прикреплять файлы к сообщениям
    Вы можете скачивать файлы