Ссылка на приватное зеркало всего за 1$. Внимание количество ограничено!!!

iTunes

1+1

iTunes

мы

MV0

1

WEB-DLRip

Джокер

Пифагор

Ведьмак / The Witcher сериал

iTunes

ПШазам

iTunes

Оно 2

iTunes

30
pack

Вам бонус

ВАЖНО

!!Акция!!

Alien_RageХит недели

RePack

Resident Evil 21

ИГРА 18+

pack

RePack

jed

!!Акция!!

Alien_Rage

RePack

fifa19

RePack

Assassins Creed: Odyssey

RePack

NEED FOR SPEED™ PAYBACK

4 сезон

9 сезон

Бесстыжие 9 сезон

Все сериалы

все сериалы на PB.wtf

RePack

FAR CRY 5
  

Вымирание / Extinction (Мигель Анхель Вивас) [2015, ужасы, фантастика, драма, BDRip 1080p, Профессиональный многоголосый [Лицензия / iTunes] R.G.Resident piratbit.pw

Вымирание через торрент piratbit.pw

Размер: 7.94 GB | Добавлен: 4 года назад | Торрент скачан:132 раза
Скачать  

28-01-2016 12:55 Вымирание Скачать торрент  

Вымирание / Extinction
««They are the last»»

Год выпуска: 2015
Страна: Испания, США, Венгрия, Франция
Жанр: ужасы, фантастика, драма
Продолжительность: 01:52:59
Перевод: Профессиональный многоголосый [Лицензия / iTunes]
Субтитры: Русские, английские
Режиссер: Мигель Анхель Вивас
В ролях:

Мэттью Фокс (Patrick), Джеффри Донован (Jack), Куинн Маккоулган (Lu), Валерия Веро (Emma), Клара Лаго (Woman), Eduardo Fedriani (Creature 1), Мэтт Девере (Soldier 1), Алекс Хафнер (Soldier 2), Джереми Вилер (Bus Driver), Katharine Bubbear (Young Girl), Daniel Bargueño (Creature 2), Орсоля Бене (Woman on Bus 2)
Описание:
После нескольких сотен тысяч лет эволюции и превосходства люди были почти стерты с лица Земли. В течение всего лишь нескольких дней инфекция превратила их в диких существ без интеллекта, они стали злыми и безжалостными. Через девять лет после этого мы находим небольшой городок - Harmony, покрытый многолетними снегами. Двое мужчин, давние друзья Патрик и Джек, и дочь Джека, Лу, - единственные оставшиеся в живых. Тем не менее, они не общаются или даже не признают друг друга. Что-то ужасное произошло между ними и глубокая неумолимая ненависть прекратила их дружбу давным-давно.
Мировая премьера: 18 июля 2015

MPAA: R - Лицам до 17 лет обязательно присутствие взрослого
Качество: BDRip 1080p Rip by schultz R.G.Resident
Формат: MKV
Видео: AVC, 1920x800 (2.40:1), 8215 kbps, 29,970 fps, 0,178 bpp
Аудио №1: русский / AC3 / 5.1 / 48 kHz / 384 kbps / 16 bit
Аудио №2: английский / DTS / 5.1 / 48 kHz / 1510 kbps / 24 bit

Код:

General
Unique ID                                : 200383487706869552360249995835274928829 (0x96C074B80F80727CA92324DFBF83A2BD)
Complete name                            : D:\download\Extinction.2015.BDRip 1080p by schultz R.G.Resident.mkv
Format                                   : Matroska
Format version                           : Version 4 / Version 2
File size                                : 7.94 GiB
Duration                                 : 1h 52mn
Overall bit rate                         : 10.1 Mbps
Encoded date                             : UTC 2016-01-28 12:24:36
Writing application                      : mkvmerge v6.7.0 ('Back to the Ground') 64bit built on Jan  8 2014 15:10:52
Writing library                          : libebml v1.3.0 + libmatroska v1.4.1
DURATION                                 : 01:45:01.712000000
NUMBER_OF_FRAMES                         : 835
NUMBER_OF_BYTES                          : 23905
_STATISTICS_WRITING_APP                  : mkvmerge v7.1.0 ('Good Love') 64bit built on Jul 27 2014 13:06:55
_STATISTICS_WRITING_DATE_UTC             : 2015-12-05 13:35:52
_STATISTICS_TAGS                         : BPS DURATION NUMBER_OF_FRAMES NUMBER_OF_BYTES

Video
ID                                       : 1
Format                                   : AVC
Format/Info                              : Advanced Video Codec
Format profile                           : High@L4.1
Format settings, CABAC                   : Yes
Format settings, ReFrames                : 5 frames
Codec ID                                 : V_MPEG4/ISO/AVC
Duration                                 : 1h 52mn
Bit rate                                 : 8 215 Kbps
Width                                    : 1 920 pixels
Height                                   : 800 pixels
Display aspect ratio                     : 2.40:1
Frame rate                               : 29.970 fps
Color space                              : YUV
Chroma subsampling                       : 4:2:0
Bit depth                                : 8 bits
Scan type                                : Progressive
Bits/(Pixel*Frame)                       : 0.178
Stream size                              : 6.29 GiB (79%)
Writing library                          : x264 core 146 r2538 121396c
Encoding settings                        : cabac=1 / ref=5 / deblock=1:-3:-3 / analyse=0x3:0x113 / me=umh / subme=11 / psy=1 / psy_rd=1.00:0.00 / mixed_ref=1 / me_range=48 / chroma_me=1 / trellis=2 / 8x8dct=1 / cqm=0 / deadzone=21,11 / fast_pskip=0 / chroma_qp_offset=-2 / threads=12 / lookahead_threads=2 / sliced_threads=0 / nr=0 / decimate=1 / interlaced=0 / bluray_compat=0 / constrained_intra=0 / bframes=9 / b_pyramid=2 / b_adapt=2 / b_bias=0 / direct=3 / weightb=1 / open_gop=0 / weightp=2 / keyint=250 / keyint_min=25 / scenecut=40 / intra_refresh=0 / rc_lookahead=40 / rc=2pass / mbtree=1 / bitrate=8215 / ratetol=1.0 / qcomp=0.60 / qpmin=0 / qpmax=69 / qpstep=4 / cplxblur=20.0 / qblur=0.5 / vbv_maxrate=14000 / vbv_bufsize=14000 / nal_hrd=none / filler=0 / ip_ratio=1.40 / aq=1:1.00
Language                                 : English
Default                                  : Yes
Forced                                   : No

Audio #1
ID                                       : 2
Format                                   : AC-3
Format/Info                              : Audio Coding 3
Mode extension                           : CM (complete main)
Codec ID                                 : A_AC3
Duration                                 : 1h 52mn
Bit rate mode                            : Constant
Bit rate                                 : 384 Kbps
Channel(s)                               : 6 channels
Channel positions                        : Front: L C R, Side: L R, LFE
Sampling rate                            : 48.0 KHz
Bit depth                                : 16 bits
Compression mode                         : Lossy
Stream size                              : 310 MiB (4%)
Title                                    : iTunes
Language                                 : Russian
Default                                  : Yes
Forced                                   : No

Audio #2
ID                                       : 3
Format                                   : DTS
Format/Info                              : Digital Theater Systems
Format profile                           : ES
Codec ID                                 : A_DTS
Duration                                 : 1h 52mn
Bit rate mode                            : Constant
Bit rate                                 : 1 510 Kbps
Channel(s)                               : 7 channels / 6 channels
Channel positions                        : Front: L C R, Side: L R, Back: C, LFE / Front: L C R, Side: L R, LFE
Sampling rate                            : 48.0 KHz
Bit depth                                : 24 bits
Compression mode                         : Lossy
Stream size                              : 1.19 GiB (15%)
Language                                 : English
Default                                  : No
Forced                                   : No

Text #1
ID                                       : 4
Format                                   : UTF-8
Codec ID                                 : S_TEXT/UTF8
Codec ID/Info                            : UTF-8 Plain Text
Language                                 : Russian
Default                                  : No
Forced                                   : No

Text #2
ID                                       : 5
Format                                   : UTF-8
Codec ID                                 : S_TEXT/UTF8
Codec ID/Info                            : UTF-8 Plain Text
Language                                 : English
Default                                  : No
Forced                                   : No

Menu
00:00:00.000                             : :Chapter 01
00:10:15.290                             : :Chapter 02
00:19:38.541                             : :Chapter 03
00:29:22.500                             : :Chapter 04
00:36:58.375                             : :Chapter 05
00:44:57.500                             : :Chapter 06
00:54:09.750                             : :Chapter 07
01:01:48.541                             : :Chapter 08
01:12:16.000                             : :Chapter 09
01:21:38.000                             : :Chapter 10
01:29:42.125                             : :Chapter 11
01:38:28.500                             : :Chapter 12
01:46:31.000                             : :Chapter 13
01:52:57.000                             : :Chapter 14


piratbit.pw



Скачать Вымирание через торрент http://pic1.kartinco.top/images/10/ejpqs.jpg Скачать фильм Вымирание через торрент бесплантно в хорошем качестве Описание: После нескольких сотен тысяч лет эволюции и превосходства люди были почти стерты с лица Земли. В течение всего лишь нескольких ... 8.5 10 11
Info! Золотая раздача, скачанное не засчитывается.
Торрент: Зарегистрирован [2016-01-28 12:55] · скачан: 132 раз
Статус: √ проверено
Размер: 7.94 GB
Как cкачать? Как скачать Вымирание через торрент | qTorrent

28-11-2019 20:33  

Отключить всю рекламу на сайте

28-01-2016 15:41 Вымирание Скачать торрент  

как фильм?

piratbit.pw



28-01-2016 15:54 Вымирание Скачать торрент  

rewil писал(а):

как фильм?


rewil писал(а):

как фильм?


Ерундаpiratbit.pw



28-01-2016 15:54 Вымирание Скачать торрент  

rewil писал(а):

как фильм?


piratbit.pw



28-01-2016 18:25 Вымирание Скачать торрент  

Ну так себе... Идея интересная, а вот реализация...piratbit.pw



04-12-2016 09:48 Вымирание Скачать торрент  

мне понравился. постапокалиптичная драма, актёры сыграли очень хорошоpiratbit.pw



    Дорогой пользователь! Огромная просьба, поблагодарите релизера, оцените раздачу и оставьте свои комментарий, если Вы скачали Вымирание через торрент бесплатно! Внесите свою лепту в развитие PiratBit!
    Комментировать посты могут только пользователи прошедшие не сложную регистрацию
    Показать сообщения:    

    Вымирание через торрент
    Скачать бесплатно Вымирание
    Вымирание скачать торрент
    Вымирание смотреть онлайн
    Cкачать фильм Вымирание бесплатно
    Вымирание скачать торрент в хорошем качестве
    Вымирание смотреть онлайн бесплатно в хорошем качестве


    Вы не можете начинать темы
    Вы не можете отвечать на сообщения
    Вы не можете редактировать свои сообщения
    Вы не можете удалять свои сообщения
    Вы не можете голосовать в опросах
    Вы не можете прикреплять файлы к сообщениям
    Вы можете скачивать файлы