1 сезон

1 сезон

iTunes

1

КиноПоиск HD

Кинопоиск HD

iTunes

13

1 сезон

RePack

30

Ultimate

ВАЖНО

ИГРА 18+

pack

RePack

MK11
pack

Легкие деньги

RePack

jed

RePack

fifa19

RePack

RDR2

RePack

NEED FOR SPEED™ PAYBACK

4 сезон

9 сезон

Бесстыжие 9 сезон

Все сериалы

все сериалы на PB.wtf

RePack

FAR CRY 5
  
Magnet ссылка

Наш бренд – кризис / Our Brand Is Crisis (Дэвид Гордон Грин / David Gordon Green) [2015, Драма, комедия, BDRip] [AVO] (Андрей Дольский) piratbit.pw

Наш бренд – кризис через торрент piratbit.pw

Размер: 1.46 GB | Добавлен: 5 лет 2 мес. назад | Торрент скачан:47 раз
Скачать  

23-01-2016 14:31 Наш бренд – кризис Скачать торрент  

Наш бренд – кризис / Our Brand Is Crisis
Год выпуска: 2015
Страна: США
Студия: Participant Media, Smokehouse Pictures
Жанр: Драма, комедия
Продолжительность: 01:47:31
Перевод: Авторский (одноголосый закадровый) [Андрей Дольский]
Cубтитры: нет
Оригинальная аудиодорожка: нет

Режиссер: Дэвид Гордон Грин / David Gordon Green

В ролях: Сандра Баллок, Билли Боб Торнтон, Энтони Маки, Жоаким ди Алмейда, Энн Дауд, Скут МакНэри, Зои Казан, Стивен Флорес, Рейнальдо Пачеко, Луис Арселла, Октавио Гомез, Луис Чавес, Нина Леон Фильм, основанный на документальных съемках, покажет изнанку избирательной кампании 2002 года, когда кандидат в президенты Боливии Гонсало Санчес де Лосада нанял политтехнологов из консалтинговой фирмы Greenberg Quinlan Rosner, чтобы прийти к победе.



Качество видео: BDRip
Формат видео: AVI
Видео: XviD, 720x400 (16:9), 23.976 fps, 1491 kbps, 0.216 bit/pixel
Аудио: AC3, 48000 Гц, 6ch, 448 kbps - AVO (Андрей Дольский)

Цитата:

Автор релиза - ylnian
Заказ и выкуп голоса Андрея Дольского - ylnian
За наложение чистого голоса спасибо rammzez
Источник для рипа - Our.Brand.Is.Crisis.2015.BluRay.1080p.AVC.DTS-HD.MA5.1-MTeam

Общее
Полное имя : E:\Our Brand Is Crisis. 2015. BDRip - ylnian.avi
Формат : AVI
Формат/Информация : Audio Video Interleave
Размер файла : 1,46 Гбайт
Продолжительность : 1 ч. 47 м.
Общий поток : 1948 Кбит/сек
Программа кодирования : VirtualDubMod 1.5.10.2 (build 2540/release)
Библиотека кодирования : VirtualDubMod build 2540/release
Видео
Идентификатор : 0
Формат : MPEG-4 Visual
Профиль формата : Advanced Simple@L5
Параметр BVOP формата : 1
Параметр QPel формата : Нет
Параметр GMC формата : Без точки перехода
Параметр матрицы формата : Default (H.263)
Идентификатор кодека : XVID
Идентификатор кодека/Подсказка : XviD
Продолжительность : 1 ч. 47 м.
Битрейт : 1491 Кбит/сек
Ширина : 720 пикселей
Высота : 400 пикселей
Соотношение сторон : 16:9
Частота кадров : 23,976 (24000/1001) кадра/сек
Цветовое пространство : YUV
Субдискретизация насыщенности : 4:2:0
Битовая глубина : 8 бит
Тип развёртки : Прогрессивная
Метод сжатия : С потерями
Бит/(Пиксели*Кадры) : 0.216
Размер потока : 1,12 Гбайт (77%)
Библиотека кодирования : XviD 1.2.1 (UTC 2008-12-04)
Аудио
Идентификатор : 1
Формат : AC-3
Формат/Информация : Audio Coding 3
Расширение режима : CM (complete main)
Параметр Endianness формата : Big
Идентификатор кодека : 2000
Продолжительность : 1 ч. 47 м.
Вид битрейта : Постоянный
Битрейт : 448 Кбит/сек
Каналы : 6 каналов
Расположение каналов : Front: L C R, Side: L R, LFE
Частота : 48,0 КГц
Частота кадров : 31,250 кадров/сек (1536 spf)
Метод сжатия : С потерями
Размер потока : 345 Мбайт (23%)
Выравнивание : Разделение по промежуткам
Продолжительность промежутка : 42 мс. (1,00 видеокадр)
Время предзагрузки промежутка : 500 мс.
piratbit.pw



Скачать Наш бренд – кризис через торрент http://i2.imageban.ru/out/2016/01/23/0a754082a6be35046f6dd5e09b44e272.jpg Скачать фильм Наш бренд – кризис через торрент бесплантно в хорошем качестве В ролях: Сандра Баллок, Билли Боб Торнтон, Энтони Маки, Жоаким ди Алмейда, Энн Дауд, Скут МакНэри, Зои Казан, Стивен Флорес, Рейнальдо ... 1 10 1
Торрент: Зарегистрирован [2016-01-23 14:31] · скачан: 47 раз
Статус: √ проверено
Размер: 1.46 GB
Как cкачать? Как скачать Наш бренд – кризис через торрент | UTorrent

% Раздел Тема Автор DL S | L
Фильмы 2015 [DVDrip, WEB-DLRip, HDrip] [ 1.47 GB ] Наш бренд – кризис / Our Brand Is Crisis [2015 BDRip] MVO [СВ Студия] bober100 Скачать
1 | 0
Фильмы [HD 720p, 1080p] (Хороший звук DUB, MVO) [ 7.45 GB ] Наш бренд – кризис / Our Brand Is Crisis [2015 BDRip 720p] MVO+DUB+AVO bober100 Скачать
1 | 0
Фильмы [HD 720p, 1080p] (Хороший звук DUB, MVO) [ 15.22 GB ] Наш бренд – кризис / Our Brand Is Crisis [2015 BDRip 1080p] MVO+DUB+AVO bober100 Скачать
1 | 0
Фильмы без перевода [ 4.1 GB ] Наш бренд – кризис / Our Brand Is Crisis [2015 WEB-DL1080p] [ENG] killermax2013 Скачать
1 | 0

28-11-2019 20:33  

Отключить всю рекламу на сайте

23-01-2016 21:27 Наш бренд – кризис Скачать торрент  

мне фильм не понравился ну это конечно сугубо мое личное мнение, так что смотрите и сами оценивайтеpiratbit.pw



    Дорогой пользователь! Огромная просьба, поблагодарите релизера, оцените раздачу и оставьте свои комментарий, если Вы скачали Наш бренд – кризис через торрент бесплатно! Внесите свою лепту в развитие PiratBit!
    Комментировать посты могут только пользователи прошедшие не сложную регистрацию
    Показать сообщения:    

    Наш бренд – кризис через торрент
    Скачать бесплатно Наш бренд – кризис
    Наш бренд – кризис скачать торрент
    Наш бренд – кризис смотреть онлайн
    Cкачать фильм Наш бренд – кризис бесплатно
    Наш бренд – кризис скачать торрент в хорошем качестве
    Наш бренд – кризис смотреть онлайн бесплатно в хорошем качестве


    Вы не можете начинать темы
    Вы не можете отвечать на сообщения
    Вы не можете редактировать свои сообщения
    Вы не можете удалять свои сообщения
    Вы не можете голосовать в опросах
    Вы не можете прикреплять файлы к сообщениям
    Вы можете скачивать файлы