1 сезон

1 сезон

iTunes

1

КиноПоиск HD

Кинопоиск HD

iTunes

13

1 сезон

RePack

30

Новинка

ВАЖНО

ИГРА 18+

pack

RePack

MK11
pack

Легкие деньги

RePack

jed

RePack

fifa19

RePack

RDR2

RePack

NEED FOR SPEED™ PAYBACK

4 сезон

9 сезон

Бесстыжие 9 сезон

Все сериалы

все сериалы на PB.wtf

RePack

FAR CRY 5
  
Magnet ссылка

Почти Рождество / All Is Bright (Фил Моррисон) [2013 г., драма, комедия, HDRip, Авторский одноголосый "А.Матвеев"] piratbit.pw

Почти Рождество через торрент piratbit.pw

Размер: 2.18 GB | Добавлен: 5 лет 3 мес. назад | Торрент скачан:3 раза
Скачать  

22-01-2016 17:55 Почти Рождество Скачать торрент  

Почти Рождество / All Is Bright
Год выпуска: 2013
Страна: США / GreeneStreet Films, Sidney Kimmel Entertainment, Touchy Feely Films
Жанр: драма, комедия
Продолжительность: 01:47:24
Перевод: Авторский одноголосый (А.Матвеев)

Режиссер: Фил Моррисон

IMDB 5.60 (4017)


В ролях: Пол Джаматти, Пол Радд, Салли Хокинс, Эми Ландекер, Tatyana Richaud, Adam Phillips, Майкл Дрэйер, Колман Доминго, Хэлли Фейффер, Никки М. Джеймс

Описание: Фильм расскажет о юмористических подвигах пары предприимчивых ребят, которые решают объединить свои усилия для того, чтобы быстро заработать денег на продаже елок в канун Рождества в Нью-Йорке.

Качество: HDRip
Формат: AVI
Видео кодек: XviD
Аудио кодек: AC3
Видео: 720x304 (2.37:1), 23.976 fps, XviD build 50 ~2445 kbps avg, 0.47 bit/pixel
Аудио: 48 kHz, AC3 Dolby Digital, 3/2 (L,C,R,l,r) + LFE ch, ~448 kbps
скриншот   скриншот   скриншот   скриншот   скриншот   скриншот  

Общее
Полное имя : F:\кино\Почти Рождество.2013.A.HDRip.avi
Формат : AVI
Формат/Информация : Audio Video Interleave
Профиль формата : OpenDML
Размер файла : 2,18 Гбайт
Продолжительность : 1 ч. 47 м.
Общий поток : 2900 Кбит/сек
Программа кодирования : VirtualDubMod 1.5.10.3 | www.virtualdub-fr.org || (build 2550/release)
Библиотека кодирования : VirtualDubMod build 2550/release

Видео
Идентификатор : 0
Формат : MPEG-4 Visual
Профиль формата : Advanced Simple@L5
Параметр BVOP формата : 2
Параметр QPel формата : Нет
Параметр GMC формата : Без точки перехода
Параметр матрицы формата : Default (H.263)
Идентификатор кодека : XVID
Идентификатор кодека/Подсказка : XviD
Продолжительность : 1 ч. 47 м.
Битрейт : 2440 Кбит/сек
Ширина : 720 пикселей
Высота : 304 пикселя
Соотношение сторон : 2,35:1
Частота кадров : 23,976 (23976/1000) кадра/сек
Цветовое пространство : YUV
Субдискретизация насыщенности : 4:2:0
Битовая глубина : 8 бит
Тип развёртки : Прогрессивная
Метод сжатия : С потерями
Бит/(Пиксели*Кадры) : 0.465
Размер потока : 1,83 Гбайт (84%)
Библиотека кодирования : XviD 1.2.1 (UTC 2008-12-04)

Аудио
Идентификатор : 1
Формат : AC-3
Формат/Информация : Audio Coding 3
Расширение режима : CM (complete main)
Параметр Endianness формата : Big
Идентификатор кодека : 2000
Продолжительность : 1 ч. 47 м.
Вид битрейта : Постоянный
Битрейт : 448 Кбит/сек
Каналы : 6 каналов
Расположение каналов : Front: L C R, Side: L R, LFE
Частота : 48,0 КГц
Частота кадров : 31,250 кадров/сек (1536 spf)
Метод сжатия : С потерями
Размер потока : 344 Мбайт (15%)
Выравнивание : Разделение по промежуткам
Продолжительность промежутка : 42 мс. (1,00 видеокадр)
Время предзагрузки промежутка : 500 мс.

piratbit.pw



Скачать Почти Рождество через торрент https://pic.kartinco.top/images/11/lvbd7.jpg Скачать фильм Почти Рождество через торрент бесплантно в хорошем качестве Описание: Фильм расскажет о юмористических подвигах пары предприимчивых ребят, которые решают объединить свои усилия для того, чтобы быстро ... 10 10 1
Info! Серебряная раздача, засчитывается только 50% скачанного.
Торрент: Зарегистрирован [2016-01-22 17:55] · скачан: 3 раз
Статус: √ проверено
Размер: 2.18 GB
Как cкачать? Как скачать Почти Рождество через торрент | UTorrent

% Раздел Тема Автор DL S | L
Фильмы (Blu-ray, BD-Remux, HDDVD) [ 24.23 GB ] Почти Рождество / All Is Bright [2013 BDRemux 1080p от HDClub / Матвеев] Ворон Скачать
1 | 0
Фильмы с авторской озвучкой [ 1.45 GB ] Почти Рождество / All Is Bright [2013 BDRip-AVC] AVO [А.Матвеев] potroks Скачать
1 | 0
Фильмы 2013 (Звук TS, Cam, VO, DVO) [ 1.45 GB ] Почти Рождество / All Is Bright [2013 HDRip Любительский [Pashaup] Ворон Скачать
1 | 0
Фильмы [HD 720p, 1080p] (Звук Cam, VO, DVO) [ 10.09 GB ] Почти Рождество / All Is Bright [2013 BDRip 1080p от NovaLan] VO Ворон Скачать
1 | 0
Фильмы [HD 720p, 1080p] (Звук Cam, VO, DVO) [ 7.08 GB ] Почти Рождество / All Is Bright [2013 BDRip 720p Любительский [Pashaup] Ворон Скачать
1 | 0

28-11-2019 20:33  

Отключить всю рекламу на сайте

    Дорогой пользователь! Огромная просьба, поблагодарите релизера, оцените раздачу и оставьте свои комментарий, если Вы скачали Почти Рождество через торрент бесплатно! Внесите свою лепту в развитие PiratBit!
    Комментировать посты могут только пользователи прошедшие не сложную регистрацию
    Показать сообщения:    

    Почти Рождество через торрент
    Скачать бесплатно Почти Рождество
    Почти Рождество скачать торрент
    Почти Рождество смотреть онлайн
    Cкачать фильм Почти Рождество бесплатно
    Почти Рождество скачать торрент в хорошем качестве
    Почти Рождество смотреть онлайн бесплатно в хорошем качестве


    Вы не можете начинать темы
    Вы не можете отвечать на сообщения
    Вы не можете редактировать свои сообщения
    Вы не можете удалять свои сообщения
    Вы не можете голосовать в опросах
    Вы не можете прикреплять файлы к сообщениям
    Вы можете скачивать файлы