1 сезон

1 сезон

iTunes

1

КиноПоиск HD

Кинопоиск HD

iTunes

13

1 сезон

RePack

30

Новинка

ВАЖНО

ИГРА 18+

pack

RePack

MK11
pack

Легкие деньги

RePack

jed

RePack

fifa19

RePack

RDR2

RePack

NEED FOR SPEED™ PAYBACK

4 сезон

9 сезон

Бесстыжие 9 сезон

Все сериалы

все сериалы на PB.wtf

RePack

FAR CRY 5
  
Magnet ссылка

Глушь / Backcountry (Адам МакДональд / Adam MacDonald) [2014, ужасы, триллер, драма, BDRip-AVC от potroks] AVO [Дмитрий Есарев] piratbit.pw

Глушь через торрент piratbit.pw

Размер: 2.18 GB | Добавлен: 5 лет 3 мес. назад | Торрент скачан:103 раза
Скачать  

16-01-2016 13:29 Глушь Скачать торрент  

Глушь / Backcountry
«Survive»
Год выпуска: 2014
Страна: Канада / Fella Films, Northern Ontario Heritage Fund, Téléfilm Canada
Жанр: ужасы, триллер, драма
Продолжительность: 01:31:32
Перевод: Авторский (одноголосый) [Дмитрий Есарев]
Субтитры: русские (Notabenoid (x2)), русские (Professor), английские (SDH)
Навигация по главам: есть
Режиссер: Адам МакДональд / Adam MacDonald
В ролях:





Мисси Перегрим (Jenn), Джефф Руп (Alex), Эрик Бальфур (Brad), Николас Кэмпбелл (Ranger)




Описание: Городская пара оказалась без провианта посреди дикой глуши на территории хищного черного медведя.





Качество: BDRip-AVC
Формат: MKV
Видео кодек: AVC
Аудио кодек: AC3
Видео: AVC, 1132x474 (2.40:1), 2513 kbps, 23,976 fps, 0,195 bit/pixel
Аудио №1: AC3 / 5.1 / 48 kHz / 448 kbps / 16 bit | RUS
Аудио №2: AC3 / 5.1 / 48 kHz / 448 kbps / 16 bit | ENG

Релиз группы:
Автор рипа: potroks

Код:

General
Unique ID                                : 180629086212110257885971389277112576751 (0x87E3E5875623022C81D8D42B9A3F2AEF)
Complete name                            : N:\Ужасы\Glush.2014.DUAL.BDRip.x264.-HELLYWOOD.mkv
Format                                   : Matroska
Format version                           : Version 4 / Version 2
File size                                : 2.18 GiB
Duration                                 : 1h 31mn
Overall bit rate                         : 3 408 Kbps
Movie name                               : Backcountry (2014) - HELLYWOOD
Encoded date                             : UTC 2010-02-22 21:41:31
Writing application                      : mkvmerge v5.8.0 ('No Sleep / Pillow') built on Sep 30 2012 10:57:14
Writing library                          : libebml v1.3.0 + libmatroska v1.4.0

Video
ID                                       : 1
Format                                   : AVC
Format/Info                              : Advanced Video Codec
Format profile                           : High@L4.1
Format settings, CABAC                   : Yes
Format settings, ReFrames                : 10 frames
Codec ID                                 : V_MPEG4/ISO/AVC
Duration                                 : 1h 31mn
Bit rate                                 : 2 513 Kbps
Width                                    : 1 132 pixels
Height                                   : 474 pixels
Display aspect ratio                     : 2.40:1
Frame rate                               : 23.976 fps
Color space                              : YUV
Chroma subsampling                       : 4:2:0
Bit depth                                : 8 bits
Scan type                                : Progressive
Bits/(Pixel*Frame)                       : 0.195
Stream size                              : 1.56 GiB (72%)
Title                                    : potroks
Writing library                          : x264 core 146 r2538 121396c
Encoding settings                        : cabac=1 / ref=10 / deblock=1:-2:-2 / analyse=0x3:0x113 / me=umh / subme=11 / psy=1 / psy_rd=1.00:0.00 / mixed_ref=1 / me_range=48 / chroma_me=1 / trellis=2 / 8x8dct=1 / cqm=0 / deadzone=21,11 / fast_pskip=0 / chroma_qp_offset=-2 / threads=9 / lookahead_threads=2 / sliced_threads=0 / nr=0 / decimate=1 / interlaced=0 / bluray_compat=0 / constrained_intra=0 / bframes=11 / b_pyramid=2 / b_adapt=2 / b_bias=0 / direct=3 / weightb=1 / open_gop=0 / weightp=2 / keyint=240 / keyint_min=23 / scenecut=40 / intra_refresh=0 / rc_lookahead=60 / rc=2pass / mbtree=0 / bitrate=2513 / ratetol=1.0 / qcomp=0.70 / qpmin=0 / qpmax=69 / qpstep=4 / cplxblur=20.0 / qblur=0.5 / vbv_maxrate=14000 / vbv_bufsize=14000 / nal_hrd=none / filler=0 / ip_ratio=1.35 / pb_ratio=1.25 / aq=1:0.80
Language                                 : English
Default                                  : Yes
Forced                                   : No

Audio #1
ID                                       : 2
Format                                   : AC-3
Format/Info                              : Audio Coding 3
Mode extension                           : CM (complete main)
Codec ID                                 : A_AC3
Duration                                 : 1h 31mn
Bit rate mode                            : Constant
Bit rate                                 : 448 Kbps
Channel(s)                               : 6 channels
Channel positions                        : Front: L C R, Side: L R, LFE
Sampling rate                            : 48.0 KHz
Bit depth                                : 16 bits
Compression mode                         : Lossy
Stream size                              : 293 MiB (13%)
Title                                    : AVO | DD 5.1 @ 448 kbps - D.Yesarev
Language                                 : Russian
Default                                  : Yes
Forced                                   : No

Audio #2
ID                                       : 3
Format                                   : AC-3
Format/Info                              : Audio Coding 3
Mode extension                           : CM (complete main)
Codec ID                                 : A_AC3
Duration                                 : 1h 31mn
Bit rate mode                            : Constant
Bit rate                                 : 448 Kbps
Channel(s)                               : 6 channels
Channel positions                        : Front: L C R, Side: L R, LFE
Sampling rate                            : 48.0 KHz
Bit depth                                : 16 bits
Compression mode                         : Lossy
Stream size                              : 293 MiB (13%)
Title                                    : Original | DD 5.1 @ 448 kbps
Language                                 : English
Default                                  : No
Forced                                   : No

Text #1
ID                                       : 4
Format                                   : UTF-8
Codec ID                                 : S_TEXT/UTF8
Codec ID/Info                            : UTF-8 Plain Text
Title                                    : Notabenoid1
Language                                 : Russian
Default                                  : No
Forced                                   : No

Text #2
ID                                       : 5
Format                                   : UTF-8
Codec ID                                 : S_TEXT/UTF8
Codec ID/Info                            : UTF-8 Plain Text
Title                                    : Notabenoid2
Language                                 : Russian
Default                                  : No
Forced                                   : No

Text #3
ID                                       : 6
Format                                   : UTF-8
Codec ID                                 : S_TEXT/UTF8
Codec ID/Info                            : UTF-8 Plain Text
Title                                    : Professor
Language                                 : Russian
Default                                  : No
Forced                                   : No

Text #4
ID                                       : 7
Format                                   : UTF-8
Codec ID                                 : S_TEXT/UTF8
Codec ID/Info                            : UTF-8 Plain Text
Title                                    : SDH
Language                                 : English
Default                                  : No
Forced                                   : No

Menu
00:00:00.000                             : en:(01)00:00:00:000
00:05:53.353                             : en:(02)00:05:53:353
00:11:11.294                             : en:(03)00:11:11:294
00:18:07.086                             : en:(04)00:18:07:086
00:26:55.614                             : en:(05)00:26:55:614
00:35:10.733                             : en:(06)00:35:10:733
00:45:53.751                             : en:(07)00:45:53:751
00:51:28.085                             : en:(08)00:51:28:085
00:56:42.398                             : en:(09)00:56:42:398
01:04:26.487                             : en:(10)01:04:26:487
01:09:58.819                             : en:(11)01:09:58:819
01:20:16.435                             : en:(12)01:20:16:435

piratbit.pw



Скачать Глушь через торрент http://i73.fastpic.ru/big/2016/0116/71/6f34941f54d1ef553af27c1115919771.png Скачать фильм Глушь через торрент бесплантно в хорошем качестве Описание: Городская пара оказалась без провианта посреди дикой глуши на территории хищного черного ... 10 10 1
Info! Золотая раздача, скачанное не засчитывается.
Торрент: Зарегистрирован [2016-01-16 13:29] · скачан: 103 раз
Статус: √ проверено
Размер: 2.18 GB
Как cкачать? Как скачать Глушь через торрент | UTorrent

% Раздел Тема Автор DL S | L
R.G. Resident & PiratVoice - Фильмы, Видео [ 4.31 GB ] Глушь / Backcountry [2014 BDRip 720p Авторский Д.Есарев] R.G.Resident schultz Скачать
1 | 0
Фильмы (Blu-ray, BD-Remux, HDDVD) [ 29.38 GB ] Глушь / Backcountry [2014 BDRemux 1080p от HDClub / Есарев] Ворон Скачать
1 | 0
Фильмы с авторской озвучкой [ 1.46 GB ] Глушь / Backcountry [2014 BDRip] AVO [Дмитрий Есарев] Twi7ter Скачать
1 | 0
Фильмы с авторской озвучкой [ 1.43 GB ] Глушь / Backcountry [2014 HDRip Авторский одноголосый "Д.Есарев"] coc900 Скачать
1 | 0
Фильмы 2014 (Звук TS, Cam, VO, DVO) [ 1.42 GB ] Глушь / Дикая местность / Backcountry [2014 BDRip] DVO [DeadSno & den904] Twi7ter Скачать
1 | 0
Фильмы 2014 (Звук TS, Cam, VO, DVO) [ 1.37 GB ] Глушь / Дикая местность / Backcountry [2014 WEB-DLRip) VO [Xixidok] GEKADOL Скачать
1 | 0

28-11-2019 20:33  

Отключить всю рекламу на сайте

    Дорогой пользователь! Огромная просьба, поблагодарите релизера, оцените раздачу и оставьте свои комментарий, если Вы скачали Глушь через торрент бесплатно! Внесите свою лепту в развитие PiratBit!
    Комментировать посты могут только пользователи прошедшие не сложную регистрацию
    Показать сообщения:    

    Глушь через торрент
    Скачать бесплатно Глушь
    Глушь скачать торрент
    Глушь смотреть онлайн
    Cкачать фильм Глушь бесплатно
    Глушь скачать торрент в хорошем качестве
    Глушь смотреть онлайн бесплатно в хорошем качестве


    Вы не можете начинать темы
    Вы не можете отвечать на сообщения
    Вы не можете редактировать свои сообщения
    Вы не можете удалять свои сообщения
    Вы не можете голосовать в опросах
    Вы не можете прикреплять файлы к сообщениям
    Вы можете скачивать файлы