Ссылка на приватное зеркало всего за 1$. Внимание количество ограничено!!!

iTunes

1+1

iTunes

мы

MV0

1

WEB-DLRip

Джокер

Пифагор

Ведьмак / The Witcher сериал

iTunes

ПШазам

iTunes

Оно 2

iTunes

30
pack

Вам бонус

ВАЖНО

!!Акция!!

Alien_RageХит недели

RePack

Resident Evil 21

ИГРА 18+

pack

RePack

jed

!!Акция!!

Alien_Rage

RePack

fifa19

RePack

Assassins Creed: Odyssey

RePack

NEED FOR SPEED™ PAYBACK

4 сезон

9 сезон

Бесстыжие 9 сезон

Все сериалы

все сериалы на PB.wtf

RePack

FAR CRY 5
  

Черная месса / Black Mass (Скотт Купер) [2015, драма, криминал, биография, WEB-DL 1080p, Дублированный [iTunes] от R.G. Resident piratbit.pw

Черная месса через торрент piratbit.pw

Размер: 4.24 GB | Добавлен: 4 года 1 мес. назад | Торрент скачан:327 раз
Скачать  

16-01-2016 02:28 Черная месса Скачать торрент  


Черная месса / Black Mass
««Тайный сговор ФБР и одного из самых жестоких гангстеров в истории»»

ИНФОРМАЦИЯ:
Год выпуска:2015
Страна: США, Великобритания
Жанр: драма, криминал, биография
Продолжительность: 02:02:33
Перевод: Дублированный [iTunes]
Режиссер: Скотт Купер

В Ролях:


Джонни Депп (James «Whitey» Bulger), Джоэл Эдгертон (John Connolly), Бенедикт Камбербэтч (Billy Bulger), Кевин Бейкон (Charles McGuire), Джесси Племонс (Kevin Weeks), Питер Сарсгаард (Brian Halloran), Кори Столл (Fred Wyshak), Дакота Джонсон (Lindsey Cyr), Рори Кокрейн (Steve Flemmi), Дэвид Харбор (John Morris), Адам Скотт (FBI Agent Robert Fitzpatrick), Джулианна Николсон (Marianne Connolly)

Описание:
Картина расскажет об Уайти Балджере, знаменитом бостонском гангстере, который 16 лет находился в бегах и был арестован в июне 2011 года в Санта-Монике. Балджер, которому уже за 80, обвинялся в рэкете, был замешан в 19 убийствах и в то же время работал информатором на ФБР. Чтобы не попасть за решетку, он исчез в 1995 году и 16 лет успешно скрывался от правосудия.

  • Мировая премьера:4 сентября 2015

    ТЕХ.ДАННЫЕ:
    Качество: WEB-DL 1080p
    Формат: MKV
    Видео: AVC, 1916x796 (2.40:1), 4479 kbps, 23,976 fps, 0,122 bpp
    Аудио: русский / AC3 / 6 ch / 48 kHz / 384 kbps / 16 bit ||


    General
    Unique ID : 176893432712485602825071358109859813227 (0x85146F9750C99FF184E53FDBE08D976B)
    Complete name : D:\Торенты\Черная Месса.WEB-DL.1080p_R.G. Resident.mkv
    Format : Matroska
    Format version : Version 4 / Version 2
    File size : 4.08 GiB
    Duration : 2h 2mn
    Overall bit rate : 4 766 Kbps
    Movie name : R.G. Resident
    Encoded date : UTC 2016-01-15 18:31:34
    Writing application : mkvmerge v6.7.0 ('Back to the Ground') 64bit built on Jan 8 2014 15:10:52
    Writing library : libebml v1.3.0 + libmatroska v1.4.1

    Video
    ID : 1
    Format : AVC
    Format/Info : Advanced Video Codec
    Format profile : High@L4.0
    Format settings, CABAC : Yes
    Format settings, ReFrames : 5 frames
    Codec ID : V_MPEG4/ISO/AVC
    Duration : 2h 2mn
    Bit rate : 4 479 Kbps
    Width : 1 916 pixels
    Height : 796 pixels
    Display aspect ratio : 2.40:1
    Frame rate : 23.976 fps
    Color space : YUV
    Chroma subsampling : 4:2:0
    Bit depth : 8 bits
    Scan type : Progressive
    Bits/(Pixel*Frame) : 0.122
    Stream size : 3.83 GiB (94%)
    Title : R.G. Resident
    Language : Russian
    Default : Yes
    Forced : No
    Color primaries : BT.709-5, BT.1361, IEC 61966-2-4, SMPTE RP177
    Transfer characteristics : BT.709-5, BT.1361
    Matrix coefficients : BT.709-5, BT.1361, IEC 61966-2-4 709, SMPTE RP177

    Audio
    ID : 2
    Format : AC-3
    Format/Info : Audio Coding 3
    Mode extension : CM (complete main)
    Codec ID : A_AC3
    Duration : 2h 2mn
    Bit rate mode : Constant
    Bit rate : 384 Kbps
    Channel(s) : 6channels
    Channel positions : Front: L R
    Sampling rate : 48.0 KHz
    Bit depth : 16 bits
    Compression mode : Lossy
    Stream size : 168 MiB (4%)
    Title : Дублированный [iTunes]
    Language : Russian
    Default : Yes
    Forced : No

    Menu
    00:00:00.000 : en:1
    00:09:44.000 : en:2
    00:18:27.000 : en:3
    00:28:49.000 : en:4
    00:41:49.000 : en:5
    00:51:58.000 : en:6
    00:59:19.000 : en:7
    01:09:17.000 : en:8
    01:19:53.000 : en:9
    01:28:47.000 : en:10
    01:39:44.000 : en:11
    01:52:18.000 : en:12
    01:55:11.000 : en:13
    Скриншоты:

    © Оформление by .::Ворон::. постеры кэп
    piratbit.pw



  • Скачать Черная месса через торрент http://i5.imageban.ru/out/2016/01/15/9b02f2f41bda1834afe364106271ea96.jpg Скачать фильм Черная месса через торрент бесплантно в хорошем качестве Описание: Картина расскажет об Уайти Балджере, знаменитом бостонском гангстере, который 16 лет находился в бегах и был арестован в июне ... 10 10 9
    Торрент: Зарегистрирован [2016-01-16 02:28] · скачан: 327 раз
    Статус: √ проверено
    Размер: 4.24 GB
    Как cкачать? Как скачать Черная месса через торрент | qTorrent

    % Раздел Тема Автор DL S | L
    R.G. Resident & PiratVoice - Фильмы, Видео [ 2.18 GB ] Черная месса / Black Mass [2015 биография WEB-DLRip-AVC ] От R.G.Resident White Smoke Скачать
    1 | 0

    28-11-2019 20:33  

    Отключить всю рекламу на сайте

      Дорогой пользователь! Огромная просьба, поблагодарите релизера, оцените раздачу и оставьте свои комментарий, если Вы скачали Черная месса через торрент бесплатно! Внесите свою лепту в развитие PiratBit!
      Комментировать посты могут только пользователи прошедшие не сложную регистрацию
      Показать сообщения:    

      Черная месса через торрент
      Скачать бесплатно Черная месса
      Черная месса скачать торрент
      Черная месса смотреть онлайн
      Cкачать фильм Черная месса бесплатно
      Черная месса скачать торрент в хорошем качестве
      Черная месса смотреть онлайн бесплатно в хорошем качестве


      Вы не можете начинать темы
      Вы не можете отвечать на сообщения
      Вы не можете редактировать свои сообщения
      Вы не можете удалять свои сообщения
      Вы не можете голосовать в опросах
      Вы не можете прикреплять файлы к сообщениям
      Вы можете скачивать файлы