Ссылка на приватное зеркало всего за 1$. Внимание количество ограничено!!!

iTunes

1+1

iTunes

мы

MV0

1

WEB-DLRip

Джокер

Пифагор

Ведьмак / The Witcher сериал

iTunes

ПШазам

iTunes

Оно 2

iTunes

30
pack

Вам бонус

ВАЖНО

!!Акция!!

Alien_RageХит недели

RePack

Resident Evil 21

ИГРА 18+

pack

RePack

jed

!!Акция!!

Alien_Rage

RePack

fifa19

RePack

Assassins Creed: Odyssey

RePack

NEED FOR SPEED™ PAYBACK

4 сезон

9 сезон

Бесстыжие 9 сезон

Все сериалы

все сериалы на PB.wtf

RePack

FAR CRY 5
  

Последний охотник на ведьм / The Last Witch Hunter (Брек Эйснер) [2015, фэнтези, боевик, приключения, WEB-DLRip-AVC, Дубляж] iTunes От R.G.Resident piratbit.pw

Последний охотник на ведьм через торрент piratbit.pw

Раздают: 3 [ 0 KB/s ]
Размер: 1.46 GB | Добавлен: 4 года 1 мес. назад | Торрент скачан:3930 раз
Скачать  

12-01-2016 19:24 Последний охотник на ведьм Скачать торрент  

The Last Witch Hunter
««Вечно жить. Вечно убивать»»


Год выпуска: 2015
Страна: США, Китай, Канада
Жанр: фэнтези, боевик, приключения
Продолжительность: 01:46:26
Перевод: Дубляж - [Лицензия / iTunes]
Режиссер: Брек Эйснер
В ролях:

Вин Дизель (Kaulder), Роуз Лесли (Chloe), Элайджа Вуд (Dolan 37th), Оулавюр Дарри Оулафссон (Belial), Рина Оуэн (Glaeser), Юли Энгельбрехт (Witch Queen), Майкл Кейн (Dolan 36th), Джозеф Гилган (Ellic), Исаак Де Банколе (Max Schlesinger), Майкл Халсли (Grosette), Слоун Кумбс (Elizabeth), Лотта Вербек (Helena)


Современный мир скрывает множество секретов, но самым удивительным из них является то, что ведьмы до сих пор живут среди нас. Это злобные сверхъестественные существа, чья цель - наслать на мир смертоносную чуму. Армии охотников на ведьм сражались с ними на протяжении многих веков.
В наши дни остался всего лишь один охотник на ведьм, Колдер, которому однажды удалось убить всемогущую королеву ведьм. Но Колдер еще не знает, что королева воскресла и жаждет отомстить своему убийце...
Мировая премьера: 13 октября 2015

Качество: WEB-DLRip-AVC (исх.WEB-DLRip 1080р) Rip by White Smoke

Формат: MKV
Видео: AVC, 1024x576 (16:9), 1577 kbps, 24 fps, 0,111 bpp
Аудио: AC3 / 5.1 / 48 kHz / 384 kbps / 16 bit

Код:

General
Unique ID                                : 209364558204117139955781273698799645274 (0x9D8225AE7F5FA1AEBAD54AEE713AF25A)
Complete name                            : C:\Games\The.Last.Witch.Hunter.2015.WEB-DLRip-AVC.by.White Smoke.R.G.Resident.mkv
Format                                   : Matroska
Format version                           : Version 2
File size                                : 1.46 GiB
Duration                                 : 1h 46mn
Overall bit rate                         : 1 961 Kbps
Encoded date                             : UTC 2016-01-12 17:09:55
Writing application                      : mkvmerge v7.8.0 ('River Man') 32bit built on Apr  3 2015 12:11:22
Writing library                          : libebml v1.3.1 + libmatroska v1.4.2

Video
ID                                       : 1
Format                                   : AVC
Format/Info                              : Advanced Video Codec
Format profile                           : High@L4.1
Format settings, CABAC                   : Yes
Format settings, ReFrames                : 12 frames
Codec ID                                 : V_MPEG4/ISO/AVC
Duration                                 : 1h 46mn
Bit rate                                 : 1 577 Kbps
Width                                    : 1 024 pixels
Height                                   : 576 pixels
Display aspect ratio                     : 16:9
Frame rate                               : 24.000 fps
Color space                              : YUV
Chroma subsampling                       : 4:2:0
Bit depth                                : 8 bits
Scan type                                : Progressive
Bits/(Pixel*Frame)                       : 0.111
Stream size                              : 1.14 GiB (78%)
Writing library                          : x264 core 146 r2538 121396c
Encoding settings                        : cabac=1 / ref=12 / deblock=1:-3:-3 / analyse=0x3:0x113 / me=umh / subme=11 / psy=1 / psy_rd=1.00:0.10 / mixed_ref=1 / me_range=48 / chroma_me=1 / trellis=2 / 8x8dct=1 / cqm=0 / deadzone=21,11 / fast_pskip=0 / chroma_qp_offset=-3 / threads=6 / lookahead_threads=1 / sliced_threads=0 / nr=0 / decimate=1 / interlaced=0 / bluray_compat=0 / constrained_intra=0 / bframes=13 / b_pyramid=2 / b_adapt=2 / b_bias=0 / direct=3 / weightb=1 / open_gop=0 / weightp=2 / keyint=240 / keyint_min=23 / scenecut=40 / intra_refresh=0 / rc_lookahead=40 / rc=2pass / mbtree=0 / bitrate=1577 / ratetol=1.0 / qcomp=0.60 / qpmin=0 / qpmax=69 / qpstep=4 / cplxblur=20.0 / qblur=0.5 / vbv_maxrate=14000 / vbv_bufsize=14000 / nal_hrd=none / filler=0 / ip_ratio=1.40 / pb_ratio=1.30 / aq=1:0.80
Default                                  : Yes
Forced                                   : No

Audio
ID                                       : 2
Format                                   : AC-3
Format/Info                              : Audio Coding 3
Mode extension                           : CM (complete main)
Codec ID                                 : A_AC3
Duration                                 : 1h 46mn
Bit rate mode                            : Constant
Bit rate                                 : 384 Kbps
Channel(s)                               : 6 channels
Channel positions                        : Front: L C R, Side: L R, LFE
Sampling rate                            : 48.0 KHz
Bit depth                                : 16 bits
Compression mode                         : Lossy
Stream size                              : 292 MiB (20%)
Default                                  : Yes
Forced                                   : No


© Оформление by White Smoke piratbit.pw



Скачать Последний охотник на ведьм через торрент http://s35-temporary-files.radikal.ru/5d9adf2074144ebc9ca6911fd6c33e29/1814552417.jpg Скачать фильм Последний охотник на ведьм через торрент бесплантно в хорошем качестве В ролях: Вин Дизель (Kaulder), Роуз Лесли (Chloe), Элайджа Вуд (Dolan 37th), Оулавюр Дарри Оулафссон (Belial), Рина ... 9.2 10 69
Info! Золотая раздача, скачанное не засчитывается.
Торрент: Зарегистрирован [2016-01-12 19:24] · скачан: 3 930 раз
Статус: √ проверено
Размер: 1.46 GB
Как cкачать? Как скачать Последний охотник на ведьм через торрент | qTorrent

28-11-2019 20:33  

Отключить всю рекламу на сайте

13-01-2016 07:28 Последний охотник на ведьм Скачать торрент  

посмотрим, спасибо за раздачуpiratbit.pw



13-01-2016 11:25 Последний охотник на ведьм Скачать торрент  

Спасибо ,но не осилил все.Только до половины фильмаpiratbit.pw



13-01-2016 15:06 Последний охотник на ведьм Скачать торрент  

Надеюсь Вин дизель -королева ведьмpiratbit.pw



13-01-2016 16:12 Последний охотник на ведьм Скачать торрент  

maverick444 писал(а):

Спасибо ,но не осилил все.Только до половины фильма

Я осилил только 20 минут.piratbit.pw



13-01-2016 19:34 Последний охотник на ведьм Скачать торрент  

рейтинг кинопоиска, ИМХО, завышенpiratbit.pw



13-01-2016 21:27 Последний охотник на ведьм Скачать торрент  

«Последний охотник на ведьм» — это пример того, как все пули, выпущенные создателями, ушли в «молоко». Вин Дизель хотел дистанцироваться от «Форсажа»? Ничего не вышло, он не потрудился сменить облик и забыл расстаться с автомобилями. Вин Дизель — абсолютно типичный, от которого уже давно начали уставать мы. Хотелось бы верить, что создатели фильма правильно воспримут слово «последний» и не станут плодить франшизу; хотя финал сделали таким открытым явно как задел для сиквела.
4/10
Когда ведьма сказала, что он теперь не умрет никогда я понял как он выживал в 7 частях форсажа)))
piratbit.pw



16-01-2016 07:47 Последний охотник на ведьм Скачать торрент  

Извиняюсь что не по теме. Уважаемые подскажите как настроить торрент клиент чтобы качались раздачи, а то блокировку в браузере вроде бы обошел а торрент клиент не качает (DHT включен скорость в трех топовых раздачах 0) Что делать?piratbit.pw



17-01-2016 09:26 Последний охотник на ведьм Скачать торрент  

Да ладно вам, нормальный фильм. Я вот даже не жду от этого актера другого образа.piratbit.pw



18-01-2016 17:32 Последний охотник на ведьм Скачать торрент  

Спасибо за раздачу! Посмотрим произведение.piratbit.pw



19-01-2016 11:39 Последний охотник на ведьм Скачать торрент  

Скучноунуло, предсказуемоpiratbit.pw



21-01-2016 17:47 Последний охотник на ведьм Скачать торрент  

Спасибо, за труды за оформление) и за раздачуpiratbit.pw



23-01-2016 10:13 Последний охотник на ведьм Скачать торрент  

Фильм довольно аппетитный, посмотрел на одном дыхании...правда концовка немного не понятна походу будет продолжение...так что ждемpiratbit.pw



    Дорогой пользователь! Огромная просьба, поблагодарите релизера, оцените раздачу и оставьте свои комментарий, если Вы скачали Последний охотник на ведьм через торрент бесплатно! Внесите свою лепту в развитие PiratBit!
    Комментировать посты могут только пользователи прошедшие не сложную регистрацию
    Показать сообщения:    

    Последний охотник на ведьм через торрент
    Скачать бесплатно Последний охотник на ведьм
    Последний охотник на ведьм скачать торрент
    Последний охотник на ведьм смотреть онлайн
    Cкачать фильм Последний охотник на ведьм бесплатно
    Последний охотник на ведьм скачать торрент в хорошем качестве
    Последний охотник на ведьм смотреть онлайн бесплатно в хорошем качестве


    Вы не можете начинать темы
    Вы не можете отвечать на сообщения
    Вы не можете редактировать свои сообщения
    Вы не можете удалять свои сообщения
    Вы не можете голосовать в опросах
    Вы не можете прикреплять файлы к сообщениям
    Вы можете скачивать файлы