1 сезон

3 сезон

iTunes

1

iTunes

DUB Netflix

iTunes

13

1 сезон

RePack

30

Deluxe

pack

Легкие деньги

ВАЖНО

ИГРА 18+

pack

RePack

MK11

RePack

jed

RePack

fifa19

RePack

RDR2

RePack

NEED FOR SPEED™ PAYBACK

4 сезон

9 сезон

Бесстыжие 9 сезон

Все сериалы

все сериалы на PB.wtf

RePack

FAR CRY 5

Anonymous, добрый вечер, мы не успеваем до 1 числа собрать деньги на оплату серверов, помогите нам пожалуйста в это трудное время. В качестве благодарности мы отключим Вам всю рекламу на сайте (укажите свой ник в строку Ваше имя)!

×
  
Magnet ссылка

Охота за призраком / Hunting the Phantom (Марина Кунарова) [2014, фантастика, боевик, криминал, DVDRip, Любительский одноголосый [VANO] piratbit.pw

Охота за призраком через торрент piratbit.pw

Размер: 1.37 GB | Добавлен: 5 лет 5 мес. назад | Торрент скачан:87 раз
Скачать  

11-01-2016 17:56 Охота за призраком Скачать торрент  


Охота за призраком / Hunting the Phantom


ИНФОРМАЦИЯ:
Год выпуска:2014
Страна: Казахстан
Жанр: фантастика, боевик, криминал
Продолжительность: 01:30:58
Перевод: Любительский одноголосый [VANO]
Режиссер: Марина Кунарова

В Ролях:


Санжар Мадиев (Тимур), Арманд Ассанте (Прометей), Никита Пресняков (Зак), Асель Сагатова (Кира), Кристанна Локен, Игорь Бабичев, Эндрей Джонсон, Арман Каримов (машинист поезда), Жанна Карабалаева

Описание:
Действие истории разворачивается в недалеком будущем. Гениальное изобретение глобальной корпорации, под кодовым названием «Фантом» гарантирует искоренение преступности и безопасность во всем мире. Но это только видимая сторона «Фантома»: зловещий план корпорации кроется в установлении тотального контроля над разумом людей. Их цель изменить ход истории - получить общество послушных марионеток, которые никогда не узнают, что их разумом управляют. «Фантом» постепенно ломает судьбы людей, но никто не может понять что происходит. До тех пор пока «Фантом» не разрушил жизнь двух влюбленных - Тимура и Киры. Она обвиняется в убийстве, а он должен преступить закон, чтобы спасти ей жизнь. Человек, которого он считал преступником, американский хакер Зак, неожиданно помогает ему найти истину и раскрыть заговор глобальной корпорации. «Фантом» уничтожил все, во что верил Зак. Те кого он любил, предали его, а тот кого ненавидел, стал его другом. И теперь им вместе предстоит спасти мир от безумия. Но защищены ли они от безумия сами?

  • Мировая премьера:30 января 2014

    ТЕХ.ДАННЫЕ:
    Качество: DVDRip
    Формат: AVI
    Видео: XviD, 720x400 (16:9), 1866 kbps, 23,976 fps, 0,270 bpp
    Аудио: AC3 / 2.0 / 48 kHz / 192 kbps / 16 bit


    General
    Complete name : D:\Торенты\0hoTa.3a.Pr1zRak0m.L1.2014.DVDRip.1400MB.avi
    Format : AVI
    Format/Info : Audio Video Interleave
    File size : 1.37 GiB
    Duration : 1h 30mn
    Overall bit rate : 2 153 Kbps
    Writing application : VirtualDubMod 1.5.10.3 | www.virtualdub-fr.org || (build 2550/release)
    Writing library : VirtualDubMod build 2550/release

    Video
    ID : 0
    Format : MPEG-4 Visual
    Format profile : Advanced Simple@L5
    Format settings, BVOP : 2
    Format settings, QPel : No
    Format settings, GMC : No warppoints
    Format settings, Matrix : Default (MPEG)
    Codec ID : XVID
    Codec ID/Hint : XviD
    Duration : 1h 30mn
    Bit rate : 1 867 Kbps
    Width : 720 pixels
    Height : 400 pixels
    Display aspect ratio : 16:9
    Frame rate : 23.976 fps
    Color space : YUV
    Chroma subsampling : 4:2:0
    Bit depth : 8 bits
    Scan type : Progressive
    Compression mode : Lossy
    Bits/(Pixel*Frame) : 0.270
    Stream size : 1.19 GiB (87%)
    Writing library : XviD 1.2.1 (UTC 2008-12-04)

    Audio
    ID : 1
    Format : AC-3
    Format/Info : Audio Coding 3
    Mode extension : CM (complete main)
    Codec ID : 2000
    Duration : 1h 30mn
    Bit rate mode : Constant
    Bit rate : 192 Kbps
    Channel(s) : 2 channels
    Channel positions : Front: L R
    Sampling rate : 48.0 KHz
    Bit depth : 16 bits
    Compression mode : Lossy
    Stream size : 125 MiB (9%)
    Alignment : Split accross interleaves
    Скриншоты:

    © Оформление by .::Ворон::.
    piratbit.pw



  • Скачать Охота за призраком через торрент https://pic1.kartinco.top/images/61/ordi9.jpg Скачать фильм Охота за призраком через торрент бесплантно в хорошем качестве Описание: Действие истории разворачивается в недалеком будущем. Гениальное изобретение глобальной корпорации, под кодовым названием ... 9.8 10 6
    Торрент: Зарегистрирован [2016-01-11 17:56] · скачан: 87 раз
    Статус: T временная
    Размер: 1.37 GB
    Как cкачать? Как скачать Охота за призраком через торрент | UTorrent

    28-11-2019 20:33  

    Отключить всю рекламу на сайте

    11-01-2016 18:00 Охота за призраком Скачать торрент  

    Внимание, в релизе присутствует реклама казино. Что делать? ждать когда выложат релиз без этого (в них всегда указанно что релиз без рекламы) либо лицензию. Запретить такие темы нельзя, пока нет альтернативы.piratbit.pw


    12-01-2016 18:10 Охота за призраком Скачать торрент  

    Как в эту Борат-компанию Арманд Ассанте затесался?

    :)))piratbit.pw



      Дорогой пользователь! Огромная просьба, поблагодарите релизера, оцените раздачу и оставьте свои комментарий, если Вы скачали Охота за призраком через торрент бесплатно! Внесите свою лепту в развитие PiratBit!
      Комментировать посты могут только пользователи прошедшие не сложную регистрацию
      Показать сообщения:    

      Охота за призраком через торрент
      Скачать бесплатно Охота за призраком
      Охота за призраком скачать торрент
      Охота за призраком смотреть онлайн
      Cкачать фильм Охота за призраком бесплатно
      Охота за призраком скачать торрент в хорошем качестве
      Охота за призраком смотреть онлайн бесплатно в хорошем качестве


      Вы не можете начинать темы
      Вы не можете отвечать на сообщения
      Вы не можете редактировать свои сообщения
      Вы не можете удалять свои сообщения
      Вы не можете голосовать в опросах
      Вы не можете прикреплять файлы к сообщениям
      Вы можете скачивать файлы