Ссылка на приватное зеркало всего за 1$. Внимание количество ограничено!!!

iTunes

1+1

iTunes

мы

MV0

1

WEB-DLRip

Джокер

Пифагор

Ведьмак / The Witcher сериал

iTunes

ПШазам

iTunes

Оно 2

iTunes

30
pack

Вам бонус

ВАЖНО

!!Акция!!

Alien_RageХит недели

RePack

Resident Evil 21

ИГРА 18+

pack

RePack

jed

!!Акция!!

Alien_Rage

RePack

fifa19

RePack

Assassins Creed: Odyssey

RePack

NEED FOR SPEED™ PAYBACK

4 сезон

9 сезон

Бесстыжие 9 сезон

Все сериалы

все сериалы на PB.wtf

RePack

FAR CRY 5
  

Находка (Виктор Демент) [2015, драма, WEB-DLRip-AVC,Оригинал [iTunes] От R.G.Resident piratbit.pw

Находка через торрент piratbit.pw

Размер: 1.46 GB | Добавлен: 4 года 1 мес. назад | Торрент скачан:888 раз
Скачать  

10-01-2016 17:24 Находка Скачать торрент  

Находка


Год выпуска: 2015
Страна: Россия
Жанр: драма
Продолжительность: 01:38:58
Перевод: Оригинал [iTunes]
Режиссер: Виктор Демент
В ролях:

Алексей Гуськов (Трофим Русанов), Надежда Маркина (Нюра, жена Трофима), Анастасия Шевелёва (Ольга Ечеина), Валерий Смирнов (Петр Егоров), Мария Сокова (Наталья), Егор Харламов (Иван), Анатолий Узденский (Пал Палыч), Марат Серажетдинов (Климов), Алексей Вертков (следователь), Владимир Шульга (Бобылев), Мария Бурова (Ирина Русанова), Лидия Байрашевская (фельдшер)
Описание:
Старший инспектор рыбнадзора Трофим Русанов, считающий себя «Законом», а окружающих людей - «сволочами и ворьем», волей обстоятельств оказывается в таежном лесу, один на один с суровой природой, за десятки километров от человеческого жилья. Случай, произошедший с ним в заснеженной тайге, круто меняет его взгляды на жизнь...

Качество: WEB-DLRip-AVC (исх.WEB-DLRip 1080р) Rip by White Smoke

Формат: MKV
Видео: AVC, 1024x426 (2.40:1), 1725 kbps, 24 fps, 0,165 bpp
Аудио: AC3 / 5.1 / 48 kHz / 384 kbps / 16 bit

Код:

General
Unique ID                                : 210899801099734406145061367611592367011 (0x9EA9D3001A7E01788A73DB26F9115BA3)
Complete name                            : C:\Games\Находка.2015.WEB-DLRip-AVC.by.White Smoke.R.G.Resident.mkv
Format                                   : Matroska
Format version                           : Version 2
File size                                : 1.46 GiB
Duration                                 : 1h 38mn
Overall bit rate                         : 2 109 Kbps
Encoded date                             : UTC 2016-01-10 07:52:31
Writing application                      : mkvmerge v7.8.0 ('River Man') 32bit built on Apr  3 2015 12:11:22
Writing library                          : libebml v1.3.1 + libmatroska v1.4.2

Video
ID                                       : 1
Format                                   : AVC
Format/Info                              : Advanced Video Codec
Format profile                           : High@L4.1
Format settings, CABAC                   : Yes
Format settings, ReFrames                : 12 frames
Codec ID                                 : V_MPEG4/ISO/AVC
Duration                                 : 1h 38mn
Bit rate                                 : 1 725 Kbps
Width                                    : 1 024 pixels
Height                                   : 426 pixels
Display aspect ratio                     : 2.40:1
Frame rate                               : 24.000 fps
Color space                              : YUV
Chroma subsampling                       : 4:2:0
Bit depth                                : 8 bits
Scan type                                : Progressive
Bits/(Pixel*Frame)                       : 0.165
Stream size                              : 1.16 GiB (80%)
Writing library                          : x264 core 146 r2538 121396c
Encoding settings                        : cabac=1 / ref=12 / deblock=1:-2:-2 / analyse=0x3:0x113 / me=umh / subme=9 / psy=1 / psy_rd=1.00:0.00 / mixed_ref=1 / me_range=32 / chroma_me=1 / trellis=2 / 8x8dct=1 / cqm=0 / deadzone=21,11 / fast_pskip=0 / chroma_qp_offset=-2 / threads=6 / lookahead_threads=1 / sliced_threads=0 / nr=0 / decimate=0 / interlaced=0 / bluray_compat=0 / constrained_intra=0 / bframes=10 / b_pyramid=2 / b_adapt=2 / b_bias=0 / direct=3 / weightb=1 / open_gop=0 / weightp=2 / keyint=240 / keyint_min=23 / scenecut=40 / intra_refresh=0 / rc_lookahead=60 / rc=2pass / mbtree=0 / bitrate=1725 / ratetol=1.0 / qcomp=0.60 / qpmin=0 / qpmax=69 / qpstep=4 / cplxblur=20.0 / qblur=0.5 / vbv_maxrate=14000 / vbv_bufsize=14000 / nal_hrd=none / filler=0 / ip_ratio=1.40 / pb_ratio=1.30 / aq=1:0.80
Default                                  : Yes
Forced                                   : No

Audio
ID                                       : 2
Format                                   : AC-3
Format/Info                              : Audio Coding 3
Mode extension                           : CM (complete main)
Codec ID                                 : A_AC3
Duration                                 : 1h 38mn
Bit rate mode                            : Constant
Bit rate                                 : 384 Kbps
Channel(s)                               : 6 channels
Channel positions                        : Front: L C R, Side: L R, LFE
Sampling rate                            : 48.0 KHz
Bit depth                                : 16 bits
Compression mode                         : Lossy
Stream size                              : 272 MiB (18%)
Default                                  : Yes
Forced                                   : No


© Оформление by White Smoke piratbit.pw



Скачать Находка через торрент http://i76.fastpic.ru/big/2016/0110/6d/497dcd512cc4611e8f13af414ffd446d.jpg Скачать фильм Находка через торрент бесплантно в хорошем качестве Описание: Старший инспектор рыбнадзора Трофим Русанов, считающий себя «Законом», а окружающих людей - «сволочами и ворьем», волей ... 9.6 10 12
Info! Золотая раздача, скачанное не засчитывается.
Торрент: Зарегистрирован [2016-01-10 17:24] · скачан: 888 раз
Статус: √ проверено
Размер: 1.46 GB
Как cкачать? Как скачать Находка через торрент | qTorrent

28-11-2019 20:33  

Отключить всю рекламу на сайте

12-01-2016 14:47 Находка Скачать торрент  

Как фильм???Гуськов вывозит??piratbit.pw



13-01-2016 01:29 Находка Скачать торрент  

Фильм хороший. Гуськов сильно постарел (piratbit.pw



18-01-2016 07:40 Находка Скачать торрент  

Ну я бы сказала фильм на любителя, вообще идея интересная не забитый сюжет, но очень долго, местами нудновато, если есть время смотреть можно.piratbit.pw



    Дорогой пользователь! Огромная просьба, поблагодарите релизера, оцените раздачу и оставьте свои комментарий, если Вы скачали Находка через торрент бесплатно! Внесите свою лепту в развитие PiratBit!
    Комментировать посты могут только пользователи прошедшие не сложную регистрацию
    Показать сообщения:    

    Находка через торрент
    Скачать бесплатно Находка
    Находка скачать торрент
    Находка смотреть онлайн
    Cкачать фильм Находка бесплатно
    Находка скачать торрент в хорошем качестве
    Находка смотреть онлайн бесплатно в хорошем качестве


    Вы не можете начинать темы
    Вы не можете отвечать на сообщения
    Вы не можете редактировать свои сообщения
    Вы не можете удалять свои сообщения
    Вы не можете голосовать в опросах
    Вы не можете прикреплять файлы к сообщениям
    Вы можете скачивать файлы