Ссылка на приватное зеркало всего за 1$. Внимание количество ограничено!!!

iTunes

1+1

iTunes

мы

MV0

1

WEB-DLRip

Джокер

Пифагор

Ведьмак / The Witcher сериал

iTunes

ПШазам

iTunes

Оно 2

iTunes

30
pack

Вам бонус

ВАЖНО

!!Акция!!

Alien_RageХит недели

RePack

Resident Evil 21

ИГРА 18+

pack

RePack

jed

!!Акция!!

Alien_Rage

RePack

fifa19

RePack

Assassins Creed: Odyssey

RePack

NEED FOR SPEED™ PAYBACK

4 сезон

9 сезон

Бесстыжие 9 сезон

Все сериалы

все сериалы на PB.wtf

RePack

FAR CRY 5
  

Странные дни / Strange Days (Кэтрин Бигелоу) [1995 г., фантастика, боевик, триллер, драма, криминал, HDRip, Профессиональный (многоголосый)] от R.G. Resident piratbit.pw

Странные дни через торрент piratbit.pw

Размер: 2.19 GB | Добавлен: 4 года 1 мес. назад | Торрент скачан:56 раз
Скачать  

10-01-2016 12:00 Странные дни Скачать торрент  

Странные дни / Strange DaysГод выпуска: 1995
Страна: США
Жанр: фантастика, боевик, триллер, драма, криминал
Продолжительность: 02:25:11
Перевод: Профессиональный (многоголосый) | R5
Субтитры: Нет

Режиссер: Кэтрин Бигелоу
Продюссер: Джеймс Кэмерон, Стивен-Чарльз Джаффе, Лоуренс Касанофф
Сценарий: Джеймс Кэмерон, Джей Кокс

Бюджет: $42 000 000
Премьера в мире: 6 сентября 1995



В ролях: Рэйф Файнс, Анджела Бассетт, Джульетт Льюис, Том Сайзмор, Майкл Уинкотт, Винсент Д’Онофрио, Гленн Пламмер, Брижит Бако, Ричард Эдсон, Уильям Фихтнер

Описание: 1999 год. Огромной популярностью пользуется новое изобретение, разработанное ФБР в целях слежки и попавшее на «черный» рынок. Надев на голову небольшое приспособление с датчиками, можно записать ощущения и «пережить» их через проигрыватель, причем с абсолютной достоверностью.Можно принять душ в теле 16-летней девушки, можно... Кто-то записывает ощущения людей, погибающих насильственной смертью — находятся охотники и таких острых ощущений.Ленни Неро, торгующий дискетами с записанными на них человеческими ощущениями, ведет свое собственное расследование убийства знакомой девушки, чья смерть тоже была запечатлена на подобное устройство. Помогает ему в этом деле очень крутая цветная девица.

Качество: HDRip | BDRip 1080p
Формат: AVI
Видео кодек: XviD
Аудио кодек: AC3
Видео: 720x304 (2.37:1), 23.976 fps, XviD build 73 ~1764 kbps avg, 0.34 bit/pixel
Аудио: 48 kHz, AC3 Dolby Digital, 3/2 (L,C,R,l,r) + LFE ch, ~384 kbps



Автор рипа: Dean24
| | R.G. Resident
Общее
Полное имя : D:\Мои документы\Фильмы\Сайт\Strange.Days.HDRip.avi
Формат : AVI
Формат/Информация : Audio Video Interleave
Профиль формата : OpenDML
Размер файла : 2,19 Гбайт
Продолжительность : 2 ч. 25 м.
Общий поток : 2156 Кбит/сек
Программа кодирования : VirtualDubMod 1.5.10.3 | www.virtualdub-fr.org || (build 2550/release)
Библиотека кодирования : VirtualDubMod build 2550/release

Видео
Идентификатор : 0
Формат : MPEG-4 Visual
Профиль формата : Advanced Simple@L5
Параметр BVOP формата : 3
Параметр QPel формата : Нет
Параметр GMC формата : Без точки перехода
Параметр матрицы формата : Default (H.263)
Идентификатор кодека : XVID
Идентификатор кодека/Подсказка : XviD
Продолжительность : 2 ч. 25 м.
Битрейт : 1760 Кбит/сек
Ширина : 720 пикселей
Высота : 304 пикселя
Соотношение сторон : 2,35:1
Частота кадров : 23,976 кадра/сек
Цветовое пространство : YUV
Субдискретизация насыщенности : 4:2:0
Битовая глубина : 8 бит
Тип развёртки : Прогрессивная
Метод сжатия : С потерями
Бит/(Пиксели*Кадры) : 0.335
Размер потока : 1,78 Гбайт (82%)
Библиотека кодирования : XviD 73

Аудио
Идентификатор : 1
Формат : AC-3
Формат/Информация : Audio Coding 3
Расширение режима : CM (complete main)
Параметр Endianness формата : Big
Идентификатор кодека : 2000
Продолжительность : 2 ч. 25 м.
Вид битрейта : Постоянный
Битрейт : 384 Кбит/сек
Каналы : 6 каналов
Расположение каналов : Front: L C R, Side: L R, LFE
Частота : 48,0 КГц
Битовая глубина : 16 бит
Метод сжатия : С потерями
Размер потока : 399 Мбайт (18%)
Выравнивание : Разделение по промежуткам
Продолжительность промежутка : 42 мс. (1,00 видеокадр)
Время предзагрузки промежутка : 500 мс.

piratbit.pw



Скачать Странные дни через торрент http://i76.fastpic.ru/big/2016/0110/d6/2136f787bc1060fbfbecef1ffc9240d6.png Скачать фильм Странные дни через торрент бесплантно в хорошем качестве Описание: 1999 год. Огромной популярностью пользуется новое изобретение, разработанное ФБР в целях слежки и попавшее на «черный» рынок. ... 10 10 2
Info! Золотая раздача, скачанное не засчитывается.
Торрент: Зарегистрирован [2016-01-10 12:00] · скачан: 56 раз
Статус: √ проверено
Размер: 2.19 GB
Как cкачать? Как скачать Странные дни через торрент | qTorrent

28-11-2019 20:33  

Отключить всю рекламу на сайте

    Дорогой пользователь! Огромная просьба, поблагодарите релизера, оцените раздачу и оставьте свои комментарий, если Вы скачали Странные дни через торрент бесплатно! Внесите свою лепту в развитие PiratBit!
    Комментировать посты могут только пользователи прошедшие не сложную регистрацию
    Показать сообщения:    

    Странные дни через торрент
    Скачать бесплатно Странные дни
    Странные дни скачать торрент
    Странные дни смотреть онлайн
    Cкачать фильм Странные дни бесплатно
    Странные дни скачать торрент в хорошем качестве
    Странные дни смотреть онлайн бесплатно в хорошем качестве


    Вы не можете начинать темы
    Вы не можете отвечать на сообщения
    Вы не можете редактировать свои сообщения
    Вы не можете удалять свои сообщения
    Вы не можете голосовать в опросах
    Вы не можете прикреплять файлы к сообщениям
    Вы можете скачивать файлы