1 сезон

1 сезон

iTunes

1

КиноПоиск HD

Кинопоиск HD

iTunes

13

1 сезон

RePack

30

Ultimate

ВАЖНО

ИГРА 18+

pack

RePack

MK11
pack

Легкие деньги

RePack

jed

RePack

fifa19

RePack

RDR2

RePack

NEED FOR SPEED™ PAYBACK

4 сезон

9 сезон

Бесстыжие 9 сезон

Все сериалы

все сериалы на PB.wtf

RePack

FAR CRY 5
  
Magnet ссылка

Девушка для босса / The Girl Gets Moe / Love to Kill (Джеймс Брюс / James Bruce) [1997, Криминальная драма, DVDRip] [AVO] (Юрий Сербин) piratbit.pw

Девушка для босса через торрент piratbit.pw

Размер: 1.07 GB | Добавлен: 5 лет 3 мес. назад | Торрент скачан:19 раз
Скачать  

10-01-2016 11:09 Девушка для босса Скачать торрент  

Девушка для босса / The Girl Gets Moe / Love to Kill
Год выпуска: 1997
Страна: США
Жанр: Криминальная драма, боевик
Продолжительность: 01:42:14
Перевод: Авторский (одноголосый, закадровый) [Юрий Сербин]
Cубтитры: нет

Режиссер: Джеймс Брюс / James Bruce

В ролях: Тони Данца, Элизабет Барондес, Растем Бренемен, Эми Локейн, Майкл Мэдсен, Луиза Флетчер, Дэниэл Мейер, Кристин Харнос, Джеймс Руссо, Глен Чин БОЕВИК С ЧЕРНЫМ ЮМОРОМ В СТИЛЕ ТАРАНТИНО.
Парочка отчаянных гангстеров Мо и Франко неплохо живут, занимаясь подпольной торговлей оружием. Для них не существует никаких чувств, если дело касается их черного бизнеса. Каждый, кто встанет на их пути, получает пулю.
Но встретив Очаровательную Монику, Мо впервые в жизни теряет контроль над своими чувствами. Моника даже не подозревает о занятиях своего друга, хотя сама довольно неравнодушна к чудовищным «пушкам»..

Сэмпл

Качество видео: DVDRip
Формат видео: AVI
Видео: 640x480 (1.33:1), 25 fps, XviD build 47 ~1301 kbps avg, 0.17 bit/pixel
Аудио: 48 kHz, AC3 Dolby Digital, 2/0 (L,R) ch, ~192 kbps

Цитата:

Дорожка с Ю. Сербиным синхронизирована и наложена ale_x2008 при помощи Sony Vegas и VirtualDubMod.
За оцифрованную с VHS дорожку благодарим - team_6strun и за активное участие - Sergunka172



Релиз
Девушка для босса - The Girl Gets Moe [by ale_x2008].avi
Format : AVI
Format/Info : Audio Video Interleave
File size : 1.07 GiB
Duration : 1h 42mn
Overall bit rate : 1 503 Kbps
Movie name : Девушка для босса - The Girl Gets Moe [by ale_x2008]
Director : by ale_x2008
Writing application : VirtualDubMod 1.5.10.3 (build 2550/release)
Copyright : Edich2
Comment : RuTracker.org
Video
ID : 0
Format : MPEG-4 Visual
Format profile : Advanced Simple@L5
Format settings, BVOP : 1
Format settings, QPel : No
Format settings, GMC : No warppoints
Format settings, Matrix : Custom
Codec ID : XVID
Codec ID/Hint : XviD
Duration : 1h 42mn
Bit rate : 1 301 Kbps
Width : 640 pixels
Height : 480 pixels
Display aspect ratio : 4:3
Frame rate : 25.000 fps
Color space : YUV
Chroma subsampling : 4:2:0
Bit depth : 8 bits
Scan type : Progressive
Compression mode : Lossy
Bits/(Pixel*Frame) : 0.169
Stream size : 952 MiB (87%)
Writing library : XviD 1.2.0.dev47 (UTC 2006-11-01)
Audio
ID : 1
Format : AC-3
Format/Info : Audio Coding 3
Mode extension : CM (complete main)
Format settings, Endianness : Big
Codec ID : 2000
Duration : 1h 42mn
Bit rate mode : Constant
Bit rate : 192 Kbps
Channel(s) : 2 channels
Channel positions : Front: L R
Sampling rate : 48.0 KHz
Bit depth : 16 bits
Compression mode : Lossy
Stream size : 140 MiB (13%)
Alignment : Split accross interleaves
Interleave, duration : 40 ms (1.00 video frame)
Interleave, preload duration : 500 ms
piratbit.pw



Скачать Девушка для босса через торрент http://i75.fastpic.ru/big/2016/0110/1b/382f13d72fbc7e51e75c693fa270b91b.png Скачать фильм Девушка для босса через торрент бесплантно в хорошем качестве В ролях: Тони Данца, Элизабет Барондес, Растем Бренемен, Эми Локейн, Майкл Мэдсен, Луиза Флетчер, Дэниэл Мейер, Кристин Харнос, Джеймс ... 10 10 3
Info! Серебряная раздача, засчитывается только 50% скачанного.
Торрент: Зарегистрирован [2016-01-10 11:09] · скачан: 19 раз
Статус: √ проверено
Размер: 1.07 GB
Как cкачать? Как скачать Девушка для босса через торрент | UTorrent

28-11-2019 20:33  

Отключить всю рекламу на сайте

    Дорогой пользователь! Огромная просьба, поблагодарите релизера, оцените раздачу и оставьте свои комментарий, если Вы скачали Девушка для босса через торрент бесплатно! Внесите свою лепту в развитие PiratBit!
    Комментировать посты могут только пользователи прошедшие не сложную регистрацию
    Показать сообщения:    

    Девушка для босса через торрент
    Скачать бесплатно Девушка для босса
    Девушка для босса скачать торрент
    Девушка для босса смотреть онлайн
    Cкачать фильм Девушка для босса бесплатно
    Девушка для босса скачать торрент в хорошем качестве
    Девушка для босса смотреть онлайн бесплатно в хорошем качестве


    Вы не можете начинать темы
    Вы не можете отвечать на сообщения
    Вы не можете редактировать свои сообщения
    Вы не можете удалять свои сообщения
    Вы не можете голосовать в опросах
    Вы не можете прикреплять файлы к сообщениям
    Вы можете скачивать файлы