Ссылка на приватное зеркало всего за 1$. Внимание количество ограничено!!!

iTunes

1+1

iTunes

мы

MV0

1

WEB-DLRip

Джокер

Пифагор

Ведьмак / The Witcher сериал

iTunes

ПШазам

iTunes

Оно 2

iTunes

30
pack

Вам бонус

ВАЖНО

!!Акция!!

Alien_RageХит недели

RePack

Resident Evil 21

ИГРА 18+

pack

RePack

jed

!!Акция!!

Alien_Rage

RePack

fifa19

RePack

Assassins Creed: Odyssey

RePack

NEED FOR SPEED™ PAYBACK

4 сезон

9 сезон

Бесстыжие 9 сезон

Все сериалы

все сериалы на PB.wtf

RePack

FAR CRY 5
  

Стажёр / The Intern (Нэнси Майерс) [2015, мелодрама, комедия, BDRip-AVC, Дубляж] iTunes R.G.Resident piratbit.pw

Стажёр через торрент piratbit.pw

Раздают: 1 [ 0 KB/s ]
Размер: 2.18 GB | Добавлен: 4 года 1 мес. назад | Торрент скачан:106 раз
Скачать  

08-01-2016 16:17 Стажёр Скачать торрент  

Стажёр / The Intern
««Опыт всегда в моде»»

Год выпуска: 2015
Страна: США
Жанр: мелодрама, комедия
Продолжительность: 02:01:31
Перевод: Дубляж - [Лицензия / iTunes]
Режиссер: Нэнси Майерс
В ролях:

Роберт Де Ниро (Ben), Энн Хэтэуэй (Jules), Рене Руссо (Fiona), Андерс Холм (Matt), ДжоДжо Кушнер (Paige), Эндрю Рэннеллс (Cameron), Адам Дивайн (Jason), Илан Кригсфелд (Neighborhood Watch), Зак Перлман (Davis), Джейсон Орли (Lewis), Кристина Шерер (Becky), Нат Вулф (Justin)
Описание:
70-летний вдовец Бен Уитакер обнаруживает, что выход на пенсию - еще не конец. Пользуясь случаем, он становится старшим стажером в интернет-магазине модной одежды под руководством Джулс Остин.
Мировая премьера: 15 сентября 2015


MPAA: PG-13 - Детям до 13 лет просмотр не желателен
Качество: BDRip-AVC [Blu-Ray Remux 1080p] Rip by schultz R.G.Resident
Формат: MKV
Видео: AVC, 1024x578 (16:9), 2184 kbps, 23,976 fps, 0,154 bpp
Аудио: AC3 / 5.1 / 48 kHz / 384 kbps / 16 bit

Код:

General
Unique ID                                : 188873388022042731749365573826685786293 (0x8E17B0FD8E3EFCA9826607342B3D58B5)
Complete name                            : D:\download\The Intern.2015.BDRip-AVC by schultz R.G.Resident.mkv
Format                                   : Matroska
Format version                           : Version 2
File size                                : 2.18 GiB
Duration                                 : 2h 1mn
Overall bit rate                         : 2 563 Kbps
Encoded date                             : UTC 2016-01-08 15:54:46
Writing application                      : mkvmerge v6.1.0 ('Old Devil') built on Mar  4 2013 09:10:42
Writing library                          : libebml v1.3.0 + libmatroska v1.4.0

Video
ID                                       : 1
Format                                   : AVC
Format/Info                              : Advanced Video Codec
Format profile                           : High@L4.1
Format settings, CABAC                   : Yes
Format settings, ReFrames                : 12 frames
Codec ID                                 : V_MPEG4/ISO/AVC
Duration                                 : 2h 1mn
Bit rate                                 : 2 184 Kbps
Width                                    : 1 024 pixels
Height                                   : 578 pixels
Display aspect ratio                     : 16:9
Frame rate                               : 23.976 fps
Color space                              : YUV
Chroma subsampling                       : 4:2:0
Bit depth                                : 8 bits
Scan type                                : Progressive
Bits/(Pixel*Frame)                       : 0.154
Stream size                              : 1.81 GiB (83%)
Writing library                          : x264 core 130 r2273 b3065e6
Encoding settings                        : cabac=1 / ref=12 / deblock=1:-3:-3 / analyse=0x3:0x113 / me=umh / subme=11 / psy=1 / psy_rd=1.00:0.10 / mixed_ref=1 / me_range=48 / chroma_me=1 / trellis=2 / 8x8dct=1 / cqm=0 / deadzone=21,11 / fast_pskip=0 / chroma_qp_offset=-3 / threads=12 / lookahead_threads=3 / sliced_threads=0 / nr=0 / decimate=1 / interlaced=0 / bluray_compat=0 / constrained_intra=0 / bframes=13 / b_pyramid=2 / b_adapt=2 / b_bias=0 / direct=3 / weightb=1 / open_gop=0 / weightp=2 / keyint=240 / keyint_min=24 / scenecut=40 / intra_refresh=0 / rc_lookahead=40 / rc=2pass / mbtree=0 / bitrate=2184 / ratetol=1.0 / qcomp=0.60 / qpmin=0 / qpmax=69 / qpstep=4 / cplxblur=20.0 / qblur=0.5 / vbv_maxrate=14000 / vbv_bufsize=14000 / nal_hrd=none / ip_ratio=1.40 / pb_ratio=1.30 / aq=1:0.80
Default                                  : Yes
Forced                                   : No

Audio
ID                                       : 2
Format                                   : AC-3
Format/Info                              : Audio Coding 3
Mode extension                           : CM (complete main)
Codec ID                                 : A_AC3
Duration                                 : 2h 1mn
Bit rate mode                            : Constant
Bit rate                                 : 384 Kbps
Channel(s)                               : 6 channels
Channel positions                        : Front: L C R, Side: L R, LFE
Sampling rate                            : 48.0 KHz
Bit depth                                : 16 bits
Compression mode                         : Lossy
Stream size                              : 334 MiB (15%)
Default                                  : Yes
Forced                                   : No


piratbit.pw



Скачать Стажёр через торрент http://pic1.kartinco.top/images/10/ejpqs.jpg Скачать фильм Стажёр через торрент бесплантно в хорошем качестве Описание: 70-летний вдовец Бен Уитакер обнаруживает, что выход на пенсию - еще не конец. Пользуясь случаем, он становится старшим стажером ... 10 10 6
Info! Золотая раздача, скачанное не засчитывается.
Торрент: Зарегистрирован [2016-01-08 16:17] · скачан: 106 раз
Статус: √ проверено
Размер: 2.18 GB
Как cкачать? Как скачать Стажёр через торрент | qTorrent

% Раздел Тема Автор DL S | L
R.G. Resident & PiratVoice - Фильмы, Видео [ 11.12 GB ] Стажёр / The Intern [2015 BDRip 1080p ] schultz Скачать
1 | 0
R.G. Resident & PiratVoice - Фильмы, Видео [ 2.66 GB ] Стажёр / The Intern [2015 WEB-DLRip-AVC - ] От R.G.Resident White Smoke Скачать
1 | 0
R.G. Resident & PiratVoice - Фильмы, Видео [ 2.17 GB ] Стажёр / The Intern [2015 HDRip ()] от R.G. Resident Dean24 Скачать
1 | 0

28-11-2019 20:33  

Отключить всю рекламу на сайте

09-01-2016 11:07 Стажёр Скачать торрент  

Спасибо, посмотрим piratbit.pw



    Дорогой пользователь! Огромная просьба, поблагодарите релизера, оцените раздачу и оставьте свои комментарий, если Вы скачали Стажёр через торрент бесплатно! Внесите свою лепту в развитие PiratBit!
    Комментировать посты могут только пользователи прошедшие не сложную регистрацию
    Показать сообщения:    

    Стажёр через торрент
    Скачать бесплатно Стажёр
    Стажёр скачать торрент
    Стажёр смотреть онлайн
    Cкачать фильм Стажёр бесплатно
    Стажёр скачать торрент в хорошем качестве
    Стажёр смотреть онлайн бесплатно в хорошем качестве


    Вы не можете начинать темы
    Вы не можете отвечать на сообщения
    Вы не можете редактировать свои сообщения
    Вы не можете удалять свои сообщения
    Вы не можете голосовать в опросах
    Вы не можете прикреплять файлы к сообщениям
    Вы можете скачивать файлы