Ссылка на приватное зеркало всего за 1$. Внимание количество ограничено!!!

iTunes

1+1

iTunes

мы

MV0

1

WEB-DLRip

Джокер

Пифагор

Ведьмак / The Witcher сериал

iTunes

ПШазам

iTunes

Оно 2

iTunes

30
pack

Вам бонус

ВАЖНО

!!Акция!!

Alien_RageХит недели

RePack

Resident Evil 21

ИГРА 18+

pack

RePack

jed

!!Акция!!

Alien_Rage

RePack

fifa19

RePack

Assassins Creed: Odyssey

RePack

NEED FOR SPEED™ PAYBACK

4 сезон

9 сезон

Бесстыжие 9 сезон

Все сериалы

все сериалы на PB.wtf

RePack

FAR CRY 5
  

Изгоняющий дьявола: Начало / Exorcist: The Beginning (Ренни Харлин) [2004 г., ужасы, триллер, детектив, HDRip, Профессиональный (многоголосый)] от R.G. Resident piratbit.pw

Изгоняющий дьявола: Начало через торрент piratbit.pw

Размер: 1.76 GB | Добавлен: 4 года 1 мес. назад | Торрент скачан:55 раз
Скачать  

08-01-2016 10:32 Изгоняющий дьявола: Начало Скачать торрент  

Изгоняющий дьявола: Начало / Exorcist: The BeginningГод выпуска: 2004
Страна: США
Жанр: ужасы, триллер, детектив
Продолжительность: 01:53:35
Перевод: Профессиональный (многоголосый) | R5
Субтитры: Нет

Режиссер: Ренни Харлин
Продюссер: Джеймс Дж. Робинсон, Омнея ’Нини’ Мазен, Гай МакЭлвайн
Сценарий: Уильям Питер Блэтти, Алекси Хоули, Уильям Уишер мл.

Бюджет: $80 000 000
Премьера в мире: 18 августа 2004



В ролях: Стеллан Скарсгард, Изабелла Скорупко, Джеймс Д’Арси, Реми Суини, Джулиан Уэдэм, Эндрю Френч, Ральф Браун, Бен Кросс, Дэвид Брэдли, Алан Форд

Описание: После Второй мировой войны отец Меррин, отягощенный воспоминаниями об ужасах войны и усомнившийся в своем призвании, решил сложить сан и покинуть Европу. Вспомнив о своем дипломе археолога, Меррин присоединился к экспедиции, занимающейся раскопками в отдаленном районе Африки. Экспедиция обнаруживает прекрасную церковь в византийском стиле, погребенную под землей в тот самый день, когда она была построена. Под церковью Меррин находит еще более древний склеп, оказавшийся обителью Князя тьмы, столетия дожидавшегося возможности вырваться на волю...

Качество: HDRip | BDRip 1080p
Формат: AVI
Видео кодек: XviD
Аудио кодек: AC3
Видео: 720x304 (2.37:1), 23.976 fps, XviD build 73 ~1829 kbps avg, 0.35 bit/pixel
Аудио: 48 kHz, AC3 Dolby Digital, 3/2 (L,C,R,l,r) + LFE ch, ~384 kbps



Автор рипа: Dean24
| | R.G. Resident
Общее
Полное имя : D:\Мои документы\Фильмы\Сайт\Exorcist.The.Beginning.HDRip.avi
Формат : AVI
Формат/Информация : Audio Video Interleave
Размер файла : 1,76 Гбайт
Продолжительность : 1 ч. 53 м.
Общий поток : 2223 Кбит/сек
Программа кодирования : VirtualDubMod 1.5.10.3 | www.virtualdub-fr.org || (build 2550/release)
Библиотека кодирования : VirtualDubMod build 2550/release

Видео
Идентификатор : 0
Формат : MPEG-4 Visual
Профиль формата : Advanced Simple@L5
Параметр BVOP формата : 3
Параметр QPel формата : Нет
Параметр GMC формата : Без точки перехода
Параметр матрицы формата : Default (H.263)
Идентификатор кодека : XVID
Идентификатор кодека/Подсказка : XviD
Продолжительность : 1 ч. 53 м.
Битрейт : 1830 Кбит/сек
Ширина : 720 пикселей
Высота : 304 пикселя
Соотношение сторон : 2,35:1
Частота кадров : 23,976 кадра/сек
Цветовое пространство : YUV
Субдискретизация насыщенности : 4:2:0
Битовая глубина : 8 бит
Тип развёртки : Прогрессивная
Метод сжатия : С потерями
Бит/(Пиксели*Кадры) : 0.349
Размер потока : 1,45 Гбайт (82%)
Библиотека кодирования : XviD 73

Аудио
Идентификатор : 1
Формат : AC-3
Формат/Информация : Audio Coding 3
Расширение режима : CM (complete main)
Параметр Endianness формата : Big
Идентификатор кодека : 2000
Продолжительность : 1 ч. 53 м.
Вид битрейта : Постоянный
Битрейт : 384 Кбит/сек
Каналы : 6 каналов
Расположение каналов : Front: L C R, Side: L R, LFE
Частота : 48,0 КГц
Битовая глубина : 16 бит
Метод сжатия : С потерями
Размер потока : 312 Мбайт (17%)
Выравнивание : Разделение по промежуткам
Продолжительность промежутка : 42 мс. (1,00 видеокадр)
Время предзагрузки промежутка : 500 мс.

piratbit.pw



Скачать Изгоняющий дьявола: Начало через торрент http://i74.fastpic.ru/big/2016/0108/f8/30516f1ae4c13f1c2199190e3ff1a7f8.png Скачать фильм Изгоняющий дьявола: Начало через торрент бесплантно в хорошем качестве Описание: После Второй мировой войны отец Меррин, отягощенный воспоминаниями об ужасах войны и усомнившийся в своем призвании, решил ... 9.8 10 8
Info! Золотая раздача, скачанное не засчитывается.
Торрент: Зарегистрирован [2016-01-08 10:32] · скачан: 55 раз
Статус: √ проверено
Размер: 1.76 GB
Как cкачать? Как скачать Изгоняющий дьявола: Начало через торрент | qTorrent

28-11-2019 20:33  

Отключить всю рекламу на сайте

08-01-2016 14:37 Изгоняющий дьявола: Начало Скачать торрент  

спасибо, думаю будет интересноpiratbit.pw



08-01-2016 15:16 Изгоняющий дьявола: Начало Скачать торрент  

nbantkmrf, всегда пожалуйста)piratbit.pw



    Дорогой пользователь! Огромная просьба, поблагодарите релизера, оцените раздачу и оставьте свои комментарий, если Вы скачали Изгоняющий дьявола: Начало через торрент бесплатно! Внесите свою лепту в развитие PiratBit!
    Комментировать посты могут только пользователи прошедшие не сложную регистрацию
    Показать сообщения:    

    Изгоняющий дьявола: Начало через торрент
    Скачать бесплатно Изгоняющий дьявола: Начало
    Изгоняющий дьявола: Начало скачать торрент
    Изгоняющий дьявола: Начало смотреть онлайн
    Cкачать фильм Изгоняющий дьявола: Начало бесплатно
    Изгоняющий дьявола: Начало скачать торрент в хорошем качестве
    Изгоняющий дьявола: Начало смотреть онлайн бесплатно в хорошем качестве


    Вы не можете начинать темы
    Вы не можете отвечать на сообщения
    Вы не можете редактировать свои сообщения
    Вы не можете удалять свои сообщения
    Вы не можете голосовать в опросах
    Вы не можете прикреплять файлы к сообщениям
    Вы можете скачивать файлы