Ссылка на приватное зеркало всего за 1$. Внимание количество ограничено!!!

iTunes

1+1

iTunes

мы

MV0

1

WEB-DLRip

Джокер

Пифагор

Ведьмак / The Witcher сериал

iTunes

ПШазам

iTunes

Оно 2

iTunes

30
pack

Вам бонус

ВАЖНО

!!Акция!!

Alien_RageХит недели

RePack

Resident Evil 21

ИГРА 18+

pack

RePack

jed

!!Акция!!

Alien_Rage

RePack

fifa19

RePack

Assassins Creed: Odyssey

RePack

NEED FOR SPEED™ PAYBACK

4 сезон

9 сезон

Бесстыжие 9 сезон

Все сериалы

все сериалы на PB.wtf

RePack

FAR CRY 5
  

Голос улиц / Straight Outta Compton (Ф. Гэри Грей) [2015, драма, биография, музыка, HDRip-AVC, Дубляж] iTunes От R.G.Resident piratbit.pw

Голос улиц через торрент piratbit.pw

Размер: 2.17 GB | Добавлен: 4 года 1 мес. назад | Торрент скачан:563 раза
Скачать  

07-01-2016 13:05 Голос улиц Скачать торрент  

Голос улиц
««Самая опасная группа в мире»»


Год выпуска: 2015
Страна: США
Жанр: драма, биография, музыка

Продолжительность: 02:26:38
Перевод: Дубляж - [Лицензия / iTunes]
Режиссер: Ф. Гэри Грей
В ролях:

О’Ши Джексон мл. (Ice Cube), Кори Хоукинс (Dr. Dre), Джейсон Митчелл (Eazy-E), Нил Браун мл. (Dj Yella), Элдис Ходж (MC Ren), Марлон Йэтс мл. (The D.O.C), Р. Маркус Тейлор (Suge Knight), Карра Паттерсон (Tomica), Александра Шипп (Kim), Пол Джаматти (Jerry Heller), Елена Гуд (Nicole), Кит Пауэрс (Tyree)
Описание:
История группы N.W.A. из Комптона, штат Калифорния, которая в середине 1980-х произвела революцию в хип-хоп музыке.
Мировая премьера: 11 августа 2015

Качество: HDRip-AVC (исх.BDRip 1080р) Rip by White Smoke

Формат: MKV
Видео: AVC, 1024x426 (2.40:1), 1737 kbps, 23,976 fps, 0,166 bpp
Аудио: AC3 / 5.1 / 48 kHz / 384 kbps / 16 bit

Код:

General
Unique ID                                : 203567439425929172342411645911003013409 (0x9925A9A89FFF72FBA1C19BB5C6ABA121)
Complete name                            : C:\Games\G0l0C.UL1c.2015.HDRip-AVC.by.White Smoke. R.G.Resident.mkv
Format                                   : Matroska
Format version                           : Version 2
File size                                : 2.17 GiB
Duration                                 : 2h 26mn
Overall bit rate                         : 2 122 Kbps
Encoded date                             : UTC 2016-01-07 11:02:26
Writing application                      : mkvmerge v7.8.0 ('River Man') 32bit built on Apr  3 2015 12:11:22
Writing library                          : libebml v1.3.1 + libmatroska v1.4.2

Video
ID                                       : 1
Format                                   : AVC
Format/Info                              : Advanced Video Codec
Format profile                           : High@L4.1
Format settings, CABAC                   : Yes
Format settings, ReFrames                : 12 frames
Codec ID                                 : V_MPEG4/ISO/AVC
Duration                                 : 2h 26mn
Bit rate                                 : 1 737 Kbps
Width                                    : 1 024 pixels
Height                                   : 426 pixels
Display aspect ratio                     : 2.40:1
Frame rate                               : 23.976 fps
Color space                              : YUV
Chroma subsampling                       : 4:2:0
Bit depth                                : 8 bits
Scan type                                : Progressive
Bits/(Pixel*Frame)                       : 0.166
Stream size                              : 1.74 GiB (80%)
Writing library                          : x264 core 146 r2538 121396c
Encoding settings                        : cabac=1 / ref=12 / deblock=1:-2:-2 / analyse=0x3:0x113 / me=umh / subme=9 / psy=1 / psy_rd=1.00:0.00 / mixed_ref=1 / me_range=32 / chroma_me=1 / trellis=2 / 8x8dct=1 / cqm=0 / deadzone=21,11 / fast_pskip=0 / chroma_qp_offset=-2 / threads=6 / lookahead_threads=1 / sliced_threads=0 / nr=0 / decimate=0 / interlaced=0 / bluray_compat=0 / constrained_intra=0 / bframes=10 / b_pyramid=2 / b_adapt=2 / b_bias=0 / direct=3 / weightb=1 / open_gop=0 / weightp=2 / keyint=240 / keyint_min=23 / scenecut=40 / intra_refresh=0 / rc_lookahead=60 / rc=2pass / mbtree=0 / bitrate=1737 / ratetol=1.0 / qcomp=0.60 / qpmin=0 / qpmax=69 / qpstep=4 / cplxblur=20.0 / qblur=0.5 / vbv_maxrate=14000 / vbv_bufsize=14000 / nal_hrd=none / filler=0 / ip_ratio=1.40 / pb_ratio=1.30 / aq=1:0.80
Default                                  : Yes
Forced                                   : No

Audio
ID                                       : 2
Format                                   : AC-3
Format/Info                              : Audio Coding 3
Mode extension                           : CM (complete main)
Codec ID                                 : A_AC3
Duration                                 : 2h 26mn
Bit rate mode                            : Constant
Bit rate                                 : 384 Kbps
Channel(s)                               : 6 channels
Channel positions                        : Front: L C R, Side: L R, LFE
Sampling rate                            : 48.0 KHz
Bit depth                                : 16 bits
Compression mode                         : Lossy
Stream size                              : 403 MiB (18%)
Default                                  : Yes
Forced                                   : No


© Оформление by White Smoke piratbit.pw



Скачать Голос улиц через торрент http://pic1.kartinco.top/images/10/rfnyx.jpg Скачать фильм Голос улиц через торрент бесплантно в хорошем качестве Описание: История группы N.W.A. из Комптона, штат Калифорния, которая в середине 1980-х произвела революцию в хип-хоп музыке.✦ Мировая ... 8.9 10 18
Info! Золотая раздача, скачанное не засчитывается.
Торрент: Зарегистрирован [2016-01-07 13:05] · скачан: 563 раз
Статус: √ проверено
Размер: 2.17 GB
Как cкачать? Как скачать Голос улиц через торрент | qTorrent

28-11-2019 20:33  

Отключить всю рекламу на сайте

07-01-2016 15:25 Голос улиц Скачать торрент  

Как они любят ГАРЦЕВАТЬ? А на самом деле чмошники. Ссаные америкосы, нашим в подмётки не годятся.piratbit.pw



07-01-2016 18:10 Голос улиц Скачать торрент  

IceGeep писал(а):

Как они любят ГАРЦЕВАТЬ? А на самом деле чмошники. Ссаные америкосы, нашим в подмётки не годятся.

Им хип хоп ближе, чем нам) глупо сравнивать. Они то впереди по хип хопу рнб и просто рэпу будут. у нас единицы. Просто зайти на ютуб там все есть)piratbit.pw



08-01-2016 10:09 Голос улиц Скачать торрент  

Фильм супер - для ценителей олдскула и кто знает всех этих парней (персонажей в фильме) оценю по шкале 5 из 5. Школоте и студоте не понять, сейчас одни сопли от Тимати и всякую шнягу RnB слушают и называют это "гангста рэп".piratbit.pw



08-01-2016 18:02 Голос улиц Скачать торрент  

IceGeep писал(а):

Как они любят ГАРЦЕВАТЬ? А на самом деле чмошники. Ссаные америкосы, нашим в подмётки не годятся.

нашим в подметки ,я щас под столом валяюсь , я и не знал что наши мажорики кто рэп читает , в гетто жили, убиваете меня люди, рэп это музыка черных , поймите это недоумки, наш рэп - это шансон по сути, блин я худею с вас , белое гетто , рэпpiratbit.pw



10-01-2016 10:25 Голос улиц Скачать торрент  

10 из 10 piratbit.pw



21-01-2016 14:17 Голос улиц Скачать торрент  

Хороший фильм, посмотрел с удовольствием, хотя к РЭПу то отношусь...только что положительно, есть и хорошо, но биографию читал некоторых персов)) а сравнивать "наш не наш" и у кого "яйцы круче" дело 25-е))piratbit.pw



    Дорогой пользователь! Огромная просьба, поблагодарите релизера, оцените раздачу и оставьте свои комментарий, если Вы скачали Голос улиц через торрент бесплатно! Внесите свою лепту в развитие PiratBit!
    Комментировать посты могут только пользователи прошедшие не сложную регистрацию
    Показать сообщения:    

    Голос улиц через торрент
    Скачать бесплатно Голос улиц
    Голос улиц скачать торрент
    Голос улиц смотреть онлайн
    Cкачать фильм Голос улиц бесплатно
    Голос улиц скачать торрент в хорошем качестве
    Голос улиц смотреть онлайн бесплатно в хорошем качестве


    Вы не можете начинать темы
    Вы не можете отвечать на сообщения
    Вы не можете редактировать свои сообщения
    Вы не можете удалять свои сообщения
    Вы не можете голосовать в опросах
    Вы не можете прикреплять файлы к сообщениям
    Вы можете скачивать файлы