Ссылка на приватное зеркало всего за 1$. Внимание количество ограничено!!!

iTunes

1+1

iTunes

мы

MV0

1

WEB-DLRip

Джокер

Пифагор

Ведьмак / The Witcher сериал

iTunes

ПШазам

iTunes

Оно 2

iTunes

30
pack

Вам бонус

ВАЖНО

!!Акция!!

Alien_RageХит недели

RePack

Resident Evil 21

ИГРА 18+

pack

RePack

jed

!!Акция!!

Alien_Rage

RePack

fifa19

RePack

Assassins Creed: Odyssey

RePack

NEED FOR SPEED™ PAYBACK

4 сезон

9 сезон

Бесстыжие 9 сезон

Все сериалы

все сериалы на PB.wtf

RePack

FAR CRY 5
  

Оборотни / Cursed (Уэс Крэйвен) [2005 г., ужасы, триллер, мелодрама, комедия, HDRip, Дубляж Лицензия] от R.G. Resident piratbit.pw

Оборотни через торрент piratbit.pw

Размер: 1.46 GB | Добавлен: 4 года 1 мес. назад | Торрент скачан:45 раз
Скачать  

06-01-2016 09:33 Оборотни Скачать торрент  

Оборотни / CursedГод выпуска: 2005
Страна: США, Германия
Жанр: ужасы, триллер, мелодрама, комедия
Продолжительность: 01:36:58
Перевод: Дубляж Лицензия | Невафильм
Субтитры: Нет

Режиссер: Уэс Крэйвен
Продюссер: Марианн Маддалена, Кевин Уильямсон, Дэниэл К. Арредондо
Сценарий: Кевин Уильямсон

Бюджет: $38 000 000
Премьера в мире: 25 февраля 2005



В ролях: Кристина Риччи, Джошуа Джексон, Шеннон Элизабет, Порша де Росси, Майя, Кристина Анапау, Дэниэл Эдвард Мора, Солар, Джесси Айзенберг, Майло Вентимилья

Описание: Оставшиеся в живых после нападения таинственного зверя, Элли и Джимми не сразу поняли, что уже стали другими! И только появившиеся сверхъестественные возможности заставили их поверить в это! Но еще более страшным открытием становится то, что в Лос-Анджелесе, оказывается, они такие не одни!

Качество: HDRip | BDRip 1080p
Формат: AVI
Видео кодек: XviD
Аудио кодек: AC3
Видео: 704x400 (1.76:1), 23.976 fps, XviD build 73 ~1759 kbps avg, 0.26 bit/pixel
Аудио: 48 kHz, AC3 Dolby Digital, 3/2 (L,C,R,l,r) + LFE ch, ~384 kbps



Автор рипа: Dean24
| | R.G. Resident
Общее
Полное имя : D:\Мои документы\Фильмы\Сайт\Cursed.HDRip.avi
Формат : AVI
Формат/Информация : Audio Video Interleave
Размер файла : 1,46 Гбайт
Продолжительность : 1 ч. 36 м.
Общий поток : 2153 Кбит/сек
Программа кодирования : VirtualDubMod 1.5.10.3 | www.virtualdub-fr.org || (build 2550/release)
Библиотека кодирования : VirtualDubMod build 2550/release

Видео
Идентификатор : 0
Формат : MPEG-4 Visual
Профиль формата : Advanced Simple@L5
Параметр BVOP формата : 3
Параметр QPel формата : Нет
Параметр GMC формата : Без точки перехода
Параметр матрицы формата : Default (H.263)
Идентификатор кодека : XVID
Идентификатор кодека/Подсказка : XviD
Продолжительность : 1 ч. 36 м.
Битрейт : 1760 Кбит/сек
Ширина : 704 пикселя
Высота : 400 пикселей
Соотношение сторон : 16:9
Частота кадров : 23,976 кадра/сек
Цветовое пространство : YUV
Субдискретизация насыщенности : 4:2:0
Битовая глубина : 8 бит
Тип развёртки : Прогрессивная
Метод сжатия : С потерями
Бит/(Пиксели*Кадры) : 0.261
Размер потока : 1,19 Гбайт (82%)
Библиотека кодирования : XviD 73

Аудио
Идентификатор : 1
Формат : AC-3
Формат/Информация : Audio Coding 3
Расширение режима : CM (complete main)
Параметр Endianness формата : Big
Идентификатор кодека : 2000
Продолжительность : 1 ч. 36 м.
Вид битрейта : Постоянный
Битрейт : 384 Кбит/сек
Каналы : 6 каналов
Расположение каналов : Front: L C R, Side: L R, LFE
Частота : 48,0 КГц
Битовая глубина : 16 бит
Метод сжатия : С потерями
Размер потока : 266 Мбайт (18%)
Выравнивание : Разделение по промежуткам
Продолжительность промежутка : 42 мс. (1,00 видеокадр)
Время предзагрузки промежутка : 500 мс.

piratbit.pw



Скачать Оборотни через торрент http://i75.fastpic.ru/big/2016/0106/c1/661b63362fe8428216973e972bec63c1.png Скачать фильм Оборотни через торрент бесплантно в хорошем качестве Описание: Оставшиеся в живых после нападения таинственного зверя, Элли и Джимми не сразу поняли, что уже стали другими! И только ... 10 10 3
Info! Золотая раздача, скачанное не засчитывается.
Торрент: Зарегистрирован [2016-01-06 09:33] · скачан: 45 раз
Статус: √ проверено
Размер: 1.46 GB
Как cкачать? Как скачать Оборотни через торрент | qTorrent

28-11-2019 20:33  

Отключить всю рекламу на сайте

    Дорогой пользователь! Огромная просьба, поблагодарите релизера, оцените раздачу и оставьте свои комментарий, если Вы скачали Оборотни через торрент бесплатно! Внесите свою лепту в развитие PiratBit!
    Комментировать посты могут только пользователи прошедшие не сложную регистрацию
    Показать сообщения:    

    Оборотни через торрент
    Скачать бесплатно Оборотни
    Оборотни скачать торрент
    Оборотни смотреть онлайн
    Cкачать фильм Оборотни бесплатно
    Оборотни скачать торрент в хорошем качестве
    Оборотни смотреть онлайн бесплатно в хорошем качестве


    Вы не можете начинать темы
    Вы не можете отвечать на сообщения
    Вы не можете редактировать свои сообщения
    Вы не можете удалять свои сообщения
    Вы не можете голосовать в опросах
    Вы не можете прикреплять файлы к сообщениям
    Вы можете скачивать файлы