Ссылка на приватное зеркало всего за 1$. Внимание количество ограничено!!!

iTunes

1+1

iTunes

мы

MV0

1

WEB-DLRip

Джокер

Пифагор

Ведьмак / The Witcher сериал

iTunes

ПШазам

iTunes

Оно 2

iTunes

30
pack

Вам бонус

ВАЖНО

!!Акция!!

Alien_RageХит недели

RePack

Resident Evil 21

ИГРА 18+

pack

RePack

jed

!!Акция!!

Alien_Rage

RePack

fifa19

RePack

Assassins Creed: Odyssey

RePack

NEED FOR SPEED™ PAYBACK

4 сезон

9 сезон

Бесстыжие 9 сезон

Все сериалы

все сериалы на PB.wtf

RePack

FAR CRY 5
  

Про Любовь (Анна Меликян) [2015, комедия, WEB-DLRip-AVC, [Лицензия / iTunes] R.G.Resident piratbit.pw

Про Любовь через торрент piratbit.pw

Размер: 1.46 GB | Добавлен: 4 года 1 мес. назад | Торрент скачан:1206 раз
Скачать  

05-01-2016 10:13 Про Любовь Скачать торрент  

Про Любовь
««All you need is love»»

Год выпуска: 2015
Страна: Россия
Жанр: комедия
Продолжительность: 01:55:15
Перевод: Не требуется [Лицензия / iTunes]
Режиссер: Анна Меликян
В ролях:

Рената Литвинова, Михаил Ефремов, Мария Шалаева, Василий Ракша, Юлия Снигирь, Владимир Машков, Алексей Филимонов, Евгений Цыганов, Александра Бортич, Мария Данилюк, Юрий Колокольников, Равшана Куркова
Описание:
- Что такое любовь? На этот вопрос пытаются ответить герои фильма. Вереница самых разных персонажей и историй переплетаются в этом фильме. Маленькие истории о самом разном и все о любви: молодая пара, предпочитающая жить в образах японских аниме-героев; секретарша, получившая непристойное предложение от своего босса; японка, приехавшая в Москву в поисках русского мужчины; художник-граффити в поисках красоты; бывшая жена, нанятая своим мужем для необычного задания и многое другое...
Мировая премьера: 10 декабря 2015

Качество: WEB-DLRip-AVC Rip by schultz R.G.Resident
Формат: MKV
Видео: AVC, 1024x428 (2.40:1), 1430 kbps, 24 fps, 0,136 bpp
Аудио: AC3 / 5.1 / 48 kHz / 384 kbps / 16 bit

Код:

General
Unique ID                                : 195692564911469846442749278862810873634 (0x9339045E6AD6C1EFA093DF9F2BF4FF22)
Complete name                            : D:\download\PRO.LOVE.2O15.WEB-DLRip-AVC by schultz R.G.Resident.mkv
Format                                   : Matroska
Format version                           : Version 2
File size                                : 1.46 GiB
Duration                                 : 1h 55mn
Overall bit rate                         : 1 816 Kbps
Encoded date                             : UTC 2016-01-05 09:52:51
Writing application                      : mkvmerge v6.1.0 ('Old Devil') built on Mar  4 2013 09:10:42
Writing library                          : libebml v1.3.0 + libmatroska v1.4.0

Video
ID                                       : 1
Format                                   : AVC
Format/Info                              : Advanced Video Codec
Format profile                           : High@L4.1
Format settings, CABAC                   : Yes
Format settings, ReFrames                : 12 frames
Codec ID                                 : V_MPEG4/ISO/AVC
Duration                                 : 1h 55mn
Bit rate                                 : 1 430 Kbps
Width                                    : 1 024 pixels
Height                                   : 428 pixels
Display aspect ratio                     : 2.40:1
Frame rate                               : 24.000 fps
Color space                              : YUV
Chroma subsampling                       : 4:2:0
Bit depth                                : 8 bits
Scan type                                : Progressive
Bits/(Pixel*Frame)                       : 0.136
Stream size                              : 1.12 GiB (77%)
Writing library                          : x264 core 130 r2273 b3065e6
Encoding settings                        : cabac=1 / ref=12 / deblock=1:-3:-3 / analyse=0x3:0x113 / me=umh / subme=11 / psy=1 / psy_rd=1.00:0.10 / mixed_ref=1 / me_range=48 / chroma_me=1 / trellis=2 / 8x8dct=1 / cqm=0 / deadzone=21,11 / fast_pskip=0 / chroma_qp_offset=-3 / threads=12 / lookahead_threads=3 / sliced_threads=0 / nr=0 / decimate=1 / interlaced=0 / bluray_compat=0 / constrained_intra=0 / bframes=13 / b_pyramid=2 / b_adapt=2 / b_bias=0 / direct=3 / weightb=1 / open_gop=0 / weightp=2 / keyint=240 / keyint_min=24 / scenecut=40 / intra_refresh=0 / rc_lookahead=40 / rc=2pass / mbtree=0 / bitrate=1430 / ratetol=1.0 / qcomp=0.60 / qpmin=0 / qpmax=69 / qpstep=4 / cplxblur=20.0 / qblur=0.5 / vbv_maxrate=14000 / vbv_bufsize=14000 / nal_hrd=none / ip_ratio=1.40 / pb_ratio=1.30 / aq=1:0.80
Default                                  : Yes
Forced                                   : No

Audio
ID                                       : 2
Format                                   : AC-3
Format/Info                              : Audio Coding 3
Mode extension                           : CM (complete main)
Codec ID                                 : A_AC3
Duration                                 : 1h 55mn
Bit rate mode                            : Constant
Bit rate                                 : 384 Kbps
Channel(s)                               : 6 channels
Channel positions                        : Front: L C R, Side: L R, LFE
Sampling rate                            : 48.0 KHz
Bit depth                                : 16 bits
Compression mode                         : Lossy
Stream size                              : 317 MiB (21%)
Default                                  : Yes
Forced                                   : No


piratbit.pw



Скачать Про Любовь через торрент http://pic1.kartinco.top/images/10/ejpqs.jpg Скачать фильм Про Любовь через торрент бесплантно в хорошем качестве Описание: - Что такое любовь? На этот вопрос пытаются ответить герои фильма. Вереница самых разных персонажей и историй переплетаются в ... 9 10 17
Info! Золотая раздача, скачанное не засчитывается.
Торрент: Зарегистрирован [2016-01-05 10:13] · скачан: 1 206 раз
Статус: √ проверено
Размер: 1.46 GB
Как cкачать? Как скачать Про Любовь через торрент | qTorrent

% Раздел Тема Автор DL S | L
R.G. Resident & PiratVoice - Фильмы, Видео [ 1.46 GB ] Что такое любовь / What Love Is [2007 WEB-DLRip-AVC ] R.G.Resident schultz Скачать
1 | 0

28-11-2019 20:33  

Отключить всю рекламу на сайте

    Дорогой пользователь! Огромная просьба, поблагодарите релизера, оцените раздачу и оставьте свои комментарий, если Вы скачали Про Любовь через торрент бесплатно! Внесите свою лепту в развитие PiratBit!
    Комментировать посты могут только пользователи прошедшие не сложную регистрацию
    Показать сообщения:    

    Про Любовь через торрент
    Скачать бесплатно Про Любовь
    Про Любовь скачать торрент
    Про Любовь смотреть онлайн
    Cкачать фильм Про Любовь бесплатно
    Про Любовь скачать торрент в хорошем качестве
    Про Любовь смотреть онлайн бесплатно в хорошем качестве


    Вы не можете начинать темы
    Вы не можете отвечать на сообщения
    Вы не можете редактировать свои сообщения
    Вы не можете удалять свои сообщения
    Вы не можете голосовать в опросах
    Вы не можете прикреплять файлы к сообщениям
    Вы можете скачивать файлы