1 сезон

1 сезон

iTunes

1

КиноПоиск HD

Кинопоиск HD

iTunes

13

1 сезон

RePack

30

Новинка

ВАЖНО

ИГРА 18+

pack

RePack

MK11
pack

Легкие деньги

RePack

jed

RePack

fifa19

RePack

RDR2

RePack

NEED FOR SPEED™ PAYBACK

4 сезон

9 сезон

Бесстыжие 9 сезон

Все сериалы

все сериалы на PB.wtf

RePack

FAR CRY 5
  
Magnet ссылка

Раскаяние / Видение / Гнездо) / Apparition / Remorse / The Nesting (Куинн Саундерс) [2015 г., Триллер, ужасы, BDRip 1080p, AVO] [Андрей Дольский] piratbit.pw

Раскаяние через торрент piratbit.pw

Размер: 7.88 GB | Добавлен: 5 лет 3 мес. назад | Торрент скачан:42 раза
Скачать  

03-01-2016 11:08 Раскаяние Скачать торрент  

Раскаяние (Видение / Гнездо) / Apparition (Remorse / The Nesting)
Год выпуска: 2015
Страна: США
Жанр: Триллер, ужасы
Продолжительность: 01:35:15
Перевод: авторский (Андрей Дольский)+ Оригинал
Субтитры: Нет

Режиссер: Куинн Саундерс

В ролях: Дэйв Дрокслер, Катрина Ло, Ребека Чадхури, Джоди Квигли, Лили Бордан, Джаретт Армстронг, Айрен ДеЛаМэтр, Джозеф Форштром, Пит Постильоне, Меган Роуз Видер, Томас Рой, Том Сеттефрати, Марго Трови, Мелисса Чадвик

Описание: После того, как невеста Дуга Лори погибла в автокатастрофе, молодой человек уезжает в одинокую ферму в глуши, чтобы оправиться от утери. С Дугом начинают происходить сверхъестественные вещи, помогающие ему раскрыть тайну, которую Лори унесла с собой в могилу...

Качество: BDRip (1080p)
Формат: MKV
Видео кодек: AVC
Аудио кодек: AC3-DTS
Видео: MPEG-4 AVC, (1920x1032),8380 Кбит/с, 23.976 кадра/сек
Аудио#1: AC3, 2 ch,448 kbps (Rus) 48.0 KHz авторский (Андрей Дольский)
Аудио#2: DTS, 2 ch,1509 kbps (Rus) 48.0 KHz авторский (Андрей Дольский)
Аудио#3: DTS, 2 ch,1509 kbps (Eng) 48.0 KHz Оригинал
скриншот   скриншот   скриншот  

Тип потока: Видео
Длительность: 01:35:15
Кодек: AVC
Кодек/описание: Advanced Video Codec
Кодек/профиль: High@L4.1
Кодек/ID: V_MPEG4/ISO/AVC
Кодек/CABAC: Yes
Кодек/ReFrames: 4 frames
Размеры изображения: 1920 x 1032 (1.85:1)
Частота кадров: 23.976 fps
Частота кадров/тип: Constant
Размер потока: 5.42 GiB (69%)
Битрейт: 8 380 Kbps
Библиотека кодирования: x264 core 146 r2538 121396c
Цветовое пространство: YUV
Тип развёртки: Progressive
Колориметрия: 4:2:0
Глубина: 8 bits
Настройки кодирования: cabac=1 / ref=4 / deblock=1:-3:-3 / analyse=0x3:0x133 / me=umh / subme=11 / psy=1 / psy_rd=1.05:0.15 / mixed_ref=1 / me_range=48 / chroma_me=1 / trellis=2 / 8x8dct=1 / cqm=0 / deadzone=21,11 / fast_pskip=1 / chroma_qp_offset=-6 / threads=8 / lookahead_threads=2 / sliced_threads=0 / nr=0 / decimate=1 / interlaced=0 / bluray_compat=0 / constrained_intra=0 / bframes=12 / b_pyramid=2 / b_adapt=2 / b_bias=0 / direct=2 / weightb=1 / open_gop=0 / weightp=1 / keyint=240 / keyint_min=1 / scenecut=40 / intra_refresh=0 / rc_lookahead=60 / rc=2pass / mbtree=1 / bitrate=8380 / ratetol=1.0 / qcomp=0.60 / qpmin=0 / qpmax=69 / qpstep=4 / cplxblur=20.0 / qblur=0.5 / vbv_maxrate=40000 / vbv_bufsize=78125 / nal_hrd=none / filler=0 / ip_ratio=1.40 / aq=2:1.00
:
Тип потока: Звук #1
Язык: Russian
Название: AVO (Андрей Дольский) (AC3 2.0 448 kbps)
Длительность: 01:35:15.084
Кодек: AC-3
Кодек/описание: Audio Coding 3
Кодек/ID: A_AC3
Частота дискретизации: 48.0 KHz
Каналов: 2 channels
Битрейт: 448 Kbps
Битрейт/тип: Constant
Размер потока: 305 MiB (4%)
Глубина: 16 bits
Метод сжатия: Lossy
:
Тип потока: Звук #2
Язык: Russian
Название: AVO (Андрей Дольский) (DTS 2.0 1509 kbps)
Длительность: 01:35:15.084
Кодек: DTS
Кодек/описание: Digital Theater Systems
Кодек/ID: A_DTS
Частота дискретизации: 48.0 KHz
Каналов: 2 channels
Битрейт: 1 509 Kbps
Битрейт/тип: Constant
Размер потока: 1.00 GiB (13%)
Глубина: 16 bits
Метод сжатия: Lossy
:
Тип потока: Звук #3
Язык: English
Название: DTS 2.0 1509 kbps
Длительность: 01:35:15.084
Кодек: DTS
Кодек/описание: Digital Theater Systems
Кодек/ID: A_DTS
Частота дискретизации: 48.0 KHz
Каналов: 2 channels
Битрейт: 1 509 Kbps
Битрейт/тип: Constant
Размер потока: 1.00 GiB (13%)
Глубина: 16 bits
Метод сжатия: Lossy

piratbit.pw



Скачать Раскаяние через торрент https://pic1.kartinco.top/images/10/88qug.jpg Скачать фильм Раскаяние через торрент бесплантно в хорошем качестве Описание: После того, как невеста Дуга Лори погибла в автокатастрофе, молодой человек уезжает в одинокую ферму в глуши, чтобы оправиться от ... 10 10 2
Торрент: Зарегистрирован [2016-01-03 11:08] · скачан: 42 раз
Статус: √ проверено
Размер: 7.88 GB
Как cкачать? Как скачать Раскаяние через торрент | UTorrent

28-11-2019 20:33  

Отключить всю рекламу на сайте

    Дорогой пользователь! Огромная просьба, поблагодарите релизера, оцените раздачу и оставьте свои комментарий, если Вы скачали Раскаяние через торрент бесплатно! Внесите свою лепту в развитие PiratBit!
    Комментировать посты могут только пользователи прошедшие не сложную регистрацию
    Показать сообщения:    

    Раскаяние через торрент
    Скачать бесплатно Раскаяние
    Раскаяние скачать торрент
    Раскаяние смотреть онлайн
    Cкачать фильм Раскаяние бесплатно
    Раскаяние скачать торрент в хорошем качестве
    Раскаяние смотреть онлайн бесплатно в хорошем качестве


    Вы не можете начинать темы
    Вы не можете отвечать на сообщения
    Вы не можете редактировать свои сообщения
    Вы не можете удалять свои сообщения
    Вы не можете голосовать в опросах
    Вы не можете прикреплять файлы к сообщениям
    Вы можете скачивать файлы