Ссылка на приватное зеркало всего за 1$. Внимание количество ограничено!!!

iTunes

1+1

iTunes

мы

MV0

1

WEB-DLRip

Джокер

Пифагор

Ведьмак / The Witcher сериал

iTunes

ПШазам

iTunes

Оно 2

iTunes

30
pack

Вам бонус

ВАЖНО

!!Акция!!

Alien_RageХит недели

RePack

Resident Evil 21

ИГРА 18+

pack

RePack

jed

!!Акция!!

Alien_Rage

RePack

fifa19

RePack

Assassins Creed: Odyssey

RePack

NEED FOR SPEED™ PAYBACK

4 сезон

9 сезон

Бесстыжие 9 сезон

Все сериалы

все сериалы на PB.wtf

RePack

FAR CRY 5
  

Спасение / Extraction (Стивен С. Миллер) [2015, триллер, WEB-DLRip-AVC, Дубляж] iTunes [Расширенная версия] R.G.Resident piratbit.pw

Спасение через торрент piratbit.pw

Размер: 1.46 GB | Добавлен: 4 года 1 мес. назад | Торрент скачан:529 раз
Скачать  

30-12-2015 15:43 Спасение Скачать торрент  

Спасение / Extraction
««Vengeance runs in the family»»

Год выпуска: 2015
Страна: Канада
Жанр: триллер
Продолжительность: 01:28:05
Перевод: Дубляж - [Лицензия / iTunes]
Режиссер: Стивен С. Миллер
В ролях:

Брюс Уиллис (Leonard Turner), Келлан Латс (Harry Turner), Джина Карано (Victoria), Д.Б. Суини (Ken Robertson), Джошуа Микель (Drake), Стив Култер (Theodore Sitterson), Ден Билзерян (Higgins), Хезер Йохансен (Agent Stevens), Роман Митичян (Dmitri Kovrov), Кристофер Роб Бауэн (Agent Nick Purvis), Роберт Мартин Стейнберг (Ivan), Лидия Халл (Kris)
Описание:
Группа террористов похищает бывшего оперативного агента ЦРУ, чтобы использовать его в своих корыстных целях. Не дождавшись помощи от правительства, его сын начинает собственную операцию по спасению отца и возвращению его домой...
Мировая премьера: 18 декабря 2015

MPAA: R - Лицам до 17 лет обязательно присутствие взрослого
Качество: WEB-DLRip-AVC Rip by schultz R.G.Resident
Формат: MKV
Видео: AVC, 1024x426 (2.40:1), 1988 kbps, 25 fps, 0,182 bpp
Аудио: AC3 / 5.1 / 48 kHz / 384 kbps / 16 bit

Код:

General
Unique ID                                : 222610873966555618320038453489425379869 (0xA7794B78C9EC51638572DC0317D2F21D)
Complete name                            : D:\download\Cp4CeHye.2015.WEB-DLRip-AVC by schultz R.G.Resident.mkv
Format                                   : Matroska
Format version                           : Version 2
File size                                : 1.46 GiB
Duration                                 : 1h 28mn
Overall bit rate                         : 2 373 Kbps
Encoded date                             : UTC 2015-12-30 15:26:21
Writing application                      : mkvmerge v6.1.0 ('Old Devil') built on Mar  4 2013 09:10:42
Writing library                          : libebml v1.3.0 + libmatroska v1.4.0

Video
ID                                       : 1
Format                                   : AVC
Format/Info                              : Advanced Video Codec
Format profile                           : High@L4.1
Format settings, CABAC                   : Yes
Format settings, ReFrames                : 12 frames
Codec ID                                 : V_MPEG4/ISO/AVC
Duration                                 : 1h 28mn
Bit rate                                 : 1 988 Kbps
Width                                    : 1 024 pixels
Height                                   : 426 pixels
Display aspect ratio                     : 2.40:1
Frame rate                               : 25.000 fps
Color space                              : YUV
Chroma subsampling                       : 4:2:0
Bit depth                                : 8 bits
Scan type                                : Progressive
Bits/(Pixel*Frame)                       : 0.182
Stream size                              : 1.20 GiB (82%)
Writing library                          : x264 core 130 r2273 b3065e6
Encoding settings                        : cabac=1 / ref=12 / deblock=1:-3:-3 / analyse=0x3:0x113 / me=umh / subme=11 / psy=1 / psy_rd=1.00:0.15 / mixed_ref=1 / me_range=32 / chroma_me=1 / trellis=2 / 8x8dct=1 / cqm=0 / deadzone=21,11 / fast_pskip=0 / chroma_qp_offset=-3 / threads=12 / lookahead_threads=3 / sliced_threads=0 / nr=0 / decimate=1 / interlaced=0 / bluray_compat=0 / constrained_intra=0 / bframes=13 / b_pyramid=2 / b_adapt=2 / b_bias=0 / direct=3 / weightb=1 / open_gop=0 / weightp=2 / keyint=250 / keyint_min=25 / scenecut=40 / intra_refresh=0 / rc_lookahead=40 / rc=2pass / mbtree=1 / bitrate=1988 / ratetol=1.0 / qcomp=0.60 / qpmin=0 / qpmax=69 / qpstep=4 / cplxblur=20.0 / qblur=0.5 / vbv_maxrate=17500 / vbv_bufsize=14000 / nal_hrd=none / ip_ratio=1.40 / aq=1:0.80
Default                                  : Yes
Forced                                   : No

Audio
ID                                       : 2
Format                                   : AC-3
Format/Info                              : Audio Coding 3
Mode extension                           : CM (complete main)
Codec ID                                 : A_AC3
Duration                                 : 1h 28mn
Bit rate mode                            : Constant
Bit rate                                 : 384 Kbps
Channel(s)                               : 6 channels
Channel positions                        : Front: L C R, Side: L R, LFE
Sampling rate                            : 48.0 KHz
Bit depth                                : 16 bits
Compression mode                         : Lossy
Stream size                              : 242 MiB (16%)
Default                                  : Yes
Forced                                   : No


piratbit.pw



Скачать Спасение через торрент http://pic1.kartinco.top/images/10/ejpqs.jpg Скачать фильм Спасение через торрент бесплантно в хорошем качестве Описание: Группа террористов похищает бывшего оперативного агента ЦРУ, чтобы использовать его в своих корыстных целях. Не дождавшись помощи ... 7.4 10 22
Info! Золотая раздача, скачанное не засчитывается.
Торрент: Зарегистрирован [2015-12-30 15:43] · скачан: 529 раз
Статус: √ проверено
Размер: 1.46 GB
Как cкачать? Как скачать Спасение через торрент | qTorrent

28-11-2019 20:33  

Отключить всю рекламу на сайте

30-12-2015 16:46 Спасение Скачать торрент  

фильм полное piratbit.pw



30-12-2015 16:54 Спасение Скачать торрент  

Самое ценное в этом "шедевре" так только постаревшая рожа Крепкого орешка... piratbit.pw



30-12-2015 23:54 Спасение Скачать торрент  

Брюс Брюс, куда же ты катишься? piratbit.pw



05-01-2016 13:51 Спасение Скачать торрент  

фильм отстойный, полный штампов и бредаpiratbit.pw



06-01-2016 18:47 Спасение Скачать торрент  

Фильм отстой Брюса жалко.piratbit.pw



    Дорогой пользователь! Огромная просьба, поблагодарите релизера, оцените раздачу и оставьте свои комментарий, если Вы скачали Спасение через торрент бесплатно! Внесите свою лепту в развитие PiratBit!
    Комментировать посты могут только пользователи прошедшие не сложную регистрацию
    Показать сообщения:    

    Спасение через торрент
    Скачать бесплатно Спасение
    Спасение скачать торрент
    Спасение смотреть онлайн
    Cкачать фильм Спасение бесплатно
    Спасение скачать торрент в хорошем качестве
    Спасение смотреть онлайн бесплатно в хорошем качестве


    Вы не можете начинать темы
    Вы не можете отвечать на сообщения
    Вы не можете редактировать свои сообщения
    Вы не можете удалять свои сообщения
    Вы не можете голосовать в опросах
    Вы не можете прикреплять файлы к сообщениям
    Вы можете скачивать файлы