1 сезон

1 сезон

iTunes

1

КиноПоиск HD

Кинопоиск HD

iTunes

13

1 сезон

RePack

30

Новинка

ВАЖНО

ИГРА 18+

pack

RePack

MK11
pack

Легкие деньги

RePack

jed

RePack

fifa19

RePack

RDR2

RePack

NEED FOR SPEED™ PAYBACK

4 сезон

9 сезон

Бесстыжие 9 сезон

Все сериалы

все сериалы на PB.wtf

RePack

FAR CRY 5
  
Magnet ссылка

Полицейская тачка / Cop Car (Джон Уоттс / Jon Watts) [2015, триллер, криминал, BDRip-AVC от potroks] AVO [М.Чадов] piratbit.pw

Полицейская тачка через торрент piratbit.pw

Размер: 1.46 GB | Добавлен: 5 лет 3 мес. назад | Торрент скачан:61 раз
Скачать  

29-12-2015 18:50 Полицейская тачка Скачать торрент  

Полицейская тачка / Cop Car
«Their first drive could be their last»
Год выпуска: 2015
Страна: США / Audax Films, Park Pictures, Dark Arts Film
Жанр: триллер, криминал
Продолжительность: 01:27:57
Перевод: Авторский (одноголосый) [М.Чадов]
Субтитры: русские (Notabenoid / правка тайминга - potroks)
Навигация по главам: есть
Режиссер: Джон Уоттс / Jon Watts
В ролях:

Кевин Бейкон (Sheriff Kretzer), Джеймс Фридсон-Джексон (Travis), Хэйс Уэллфорд (Harrison), Камрин Менхейм (Bev), Ши Уигхэм (Man), Sean Hartley (Motorcycle Cop), Кира Седжвик (Dispatch), Loi Nguyen (Waiter), Sit Lenh (ведущая), Chuck Kull (Officer #1), Thomas Coates (Officer #2), Кэтлин Бентли (Trailer Park Lady)
Описание: Два 10-летних мальчишки находят заброшенный полицейский автомобиль и решают присвоить его себе. Обычная детская игра начинает приобретать пугающие черты после того, как шериф небольшого городка отправляется на поиски своей пропавшей машины.

Качество: BDRip-AVC
Формат: MKV
Видео кодек: AVC
Аудио кодек: AC3
Видео: 1008x422 (2.40:1), 1929 kbps, 23,976 fps, 0,189 bit/pixel
Аудио: AC3 / 5.1 / 48 kHz / 448 kbps / 16 bit

Релиз группы:
Автор рипа: potroks

Код:

General
Unique ID                                : 252343205307226288938593873318194054120 (0xBDD78895D729DDA58D3D8F0E4EF203E8)
Complete name                            : Politceyskaya.Tachka.2015.RUS.BDRip.x264.-HELLYWOOD.mkv
Format                                   : Matroska
Format version                           : Version 4 / Version 2
File size                                : 1.46 GiB
Duration                                 : 1h 27mn
Overall bit rate                         : 2 378 Kbps
Movie name                               : Cop Car (2015) - HELLYWOOD
Encoded date                             : UTC 2010-02-22 21:41:31
Writing application                      : mkvmerge v5.8.0 ('No Sleep / Pillow') built on Sep 30 2012 10:57:14
Writing library                          : libebml v1.3.0 + libmatroska v1.4.0

Video
ID                                       : 1
Format                                   : AVC
Format/Info                              : Advanced Video Codec
Format profile                           : High@L4.1
Format settings, CABAC                   : Yes
Format settings, ReFrames                : 12 frames
Codec ID                                 : V_MPEG4/ISO/AVC
Duration                                 : 1h 27mn
Bit rate                                 : 1 929 Kbps
Width                                    : 1 008 pixels
Height                                   : 422 pixels
Display aspect ratio                     : 2.40:1
Frame rate                               : 23.976 fps
Color space                              : YUV
Chroma subsampling                       : 4:2:0
Bit depth                                : 8 bits
Scan type                                : Progressive
Bits/(Pixel*Frame)                       : 0.189
Stream size                              : 1.16 GiB (79%)
Title                                    : potroks
Writing library                          : x264 core 146 r2538 121396c
Encoding settings                        : cabac=1 / ref=12 / deblock=1:-2:-2 / analyse=0x3:0x113 / me=umh / subme=11 / psy=1 / psy_rd=1.05:0.10 / mixed_ref=1 / me_range=48 / chroma_me=1 / trellis=2 / 8x8dct=1 / cqm=0 / deadzone=21,11 / fast_pskip=0 / chroma_qp_offset=-3 / threads=9 / lookahead_threads=2 / sliced_threads=0 / nr=0 / decimate=0 / interlaced=0 / bluray_compat=0 / constrained_intra=0 / bframes=13 / b_pyramid=2 / b_adapt=2 / b_bias=0 / direct=3 / weightb=1 / open_gop=0 / weightp=2 / keyint=240 / keyint_min=23 / scenecut=40 / intra_refresh=0 / rc_lookahead=60 / rc=2pass / mbtree=0 / bitrate=1929 / ratetol=1.0 / qcomp=0.70 / qpmin=0 / qpmax=69 / qpstep=4 / cplxblur=20.0 / qblur=0.5 / vbv_maxrate=14000 / vbv_bufsize=14000 / nal_hrd=none / filler=0 / ip_ratio=1.40 / pb_ratio=1.30 / aq=1:0.80
Language                                 : English
Default                                  : Yes
Forced                                   : No

Audio
ID                                       : 2
Format                                   : AC-3
Format/Info                              : Audio Coding 3
Mode extension                           : CM (complete main)
Codec ID                                 : A_AC3
Duration                                 : 1h 27mn
Bit rate mode                            : Constant
Bit rate                                 : 448 Kbps
Channel(s)                               : 6 channels
Channel positions                        : Front: L C R, Side: L R, LFE
Sampling rate                            : 48.0 KHz
Bit depth                                : 16 bits
Compression mode                         : Lossy
Stream size                              : 282 MiB (19%)
Title                                    : AVO | DD 5.1 @ 448 kbps - M.Chadov
Language                                 : Russian
Default                                  : Yes
Forced                                   : No

Text
ID                                       : 3
Format                                   : UTF-8
Codec ID                                 : S_TEXT/UTF8
Codec ID/Info                            : UTF-8 Plain Text
Language                                 : Russian
Default                                  : No
Forced                                   : No

Menu
00:00:00.000                             : en:(01)00:00:00:000
00:05:28.286                             : en:(02)00:05:28:286
00:10:07.565                             : en:(03)00:10:07:565
00:14:33.038                             : en:(04)00:14:33:038
00:20:33.941                             : en:(05)00:20:33:941
00:23:46.716                             : en:(06)00:23:46:716
00:27:51.544                             : en:(07)00:27:51:544
00:30:35.208                             : en:(08)00:30:35:208
00:34:46.667                             : en:(09)00:34:46:667
00:40:16.330                             : en:(10)00:40:16:330
00:43:34.486                             : en:(11)00:43:34:486
00:48:27.613                             : en:(12)00:48:27:613
00:52:53.670                             : en:(13)00:52:53:670
00:56:34.516                             : en:(14)00:56:34:516
01:00:40.720                             : en:(15)01:00:40:720
01:05:07.320                             : en:(16)01:05:07:320
01:09:01.137                             : en:(17)01:09:01:137
01:15:33.153                             : en:(18)01:15:33:153
01:19:46.239                             : en:(19)01:19:46:239
01:23:46.479                             : en:(20)01:23:46:479

piratbit.pw



Скачать Полицейская тачка через торрент http://i74.fastpic.ru/big/2015/1229/b6/0a9f6f65a8266e954ac80ed0d8a6c8b6.png Скачать фильм Полицейская тачка через торрент бесплантно в хорошем качестве Описание: Два 10-летних мальчишки находят заброшенный полицейский автомобиль и решают присвоить его себе. Обычная детская игра начинает ... 7 10 3
Info! Золотая раздача, скачанное не засчитывается.
Торрент: Зарегистрирован [2015-12-29 18:50] · скачан: 61 раз
Статус: √ проверено
Размер: 1.46 GB
Как cкачать? Как скачать Полицейская тачка через торрент | UTorrent

% Раздел Тема Автор DL S | L
T Релизы по Парсеру [Игры, Сериалы и Фильмы и другое...] [ 4 GB ] Полицейская тачка / Cop Car [2015 BDRip 720p] MVO [Paradox&Omskbird] GEKADOL Скачать
1 | 0
T Фильмы 2015 [DVDrip, WEB-DLRip, HDrip] [ 1.37 GB ] Полицейская тачка / Cop Car [2015 HDRip] MVO [Paradox&Omskbird] GEKADOL Скачать
1 | 0
Фильмы с авторской озвучкой [ 2.05 GB ] Полицейская тачка / Cop Car [2015 BDRip-AVC от _denis_100 / NNNB] Авторский [М. Чадов] _denis_100 Скачать
1 | 0
Фильмы с авторской озвучкой [ 1.46 GB ] Полицейская тачка / Cop Car [2015 BDRip Авторский [Чадов] Twi7ter Скачать
1 | 0
T Фильмы 2015 (Звук TS, Cam, VO, DVO) [ 1.46 GB ] Полицейская тачка / Cop Car [2015 HDRip by Dean24] Dean24 Скачать
1 | 0
T Фильмы [HD 720p, 1080p] (Звук Cam, VO, DVO) [ 10.61 GB ] Полицейская тачка / Cop Car [2015 BDRip 1080p Любительский [Paul Bunyan]] Бумер Скачать
1 | 0
T Фильмы 2015 (Звук TS, Cam, VO, DVO) [ 1.37 GB ] Полицейская тачка / Cop Car [2015 WEB-DLRip Любительский ] _KaisiK_ Скачать
1 | 0

28-11-2019 20:33  

Отключить всю рекламу на сайте

    Дорогой пользователь! Огромная просьба, поблагодарите релизера, оцените раздачу и оставьте свои комментарий, если Вы скачали Полицейская тачка через торрент бесплатно! Внесите свою лепту в развитие PiratBit!
    Комментировать посты могут только пользователи прошедшие не сложную регистрацию
    Показать сообщения:    

    Полицейская тачка через торрент
    Скачать бесплатно Полицейская тачка
    Полицейская тачка скачать торрент
    Полицейская тачка смотреть онлайн
    Cкачать фильм Полицейская тачка бесплатно
    Полицейская тачка скачать торрент в хорошем качестве
    Полицейская тачка смотреть онлайн бесплатно в хорошем качестве


    Вы не можете начинать темы
    Вы не можете отвечать на сообщения
    Вы не можете редактировать свои сообщения
    Вы не можете удалять свои сообщения
    Вы не можете голосовать в опросах
    Вы не можете прикреплять файлы к сообщениям
    Вы можете скачивать файлы