Ссылка на приватное зеркало всего за 1$. Внимание количество ограничено!!!

iTunes

1+1

iTunes

мы

MV0

1

WEB-DLRip

Джокер

Пифагор

Ведьмак / The Witcher сериал

iTunes

ПШазам

iTunes

Оно 2

iTunes

30
pack

Вам бонус

ВАЖНО

!!Акция!!

Alien_RageХит недели

RePack

Resident Evil 21

ИГРА 18+

pack

RePack

jed

!!Акция!!

Alien_Rage

RePack

fifa19

RePack

Assassins Creed: Odyssey

RePack

NEED FOR SPEED™ PAYBACK

4 сезон

9 сезон

Бесстыжие 9 сезон

Все сериалы

все сериалы на PB.wtf

RePack

FAR CRY 5
  

Волна / Bølgen (Роар Утхауг) [2015, боевик, триллер, драма, BDRip-AVC, Дубляж] iTunes R.G.Resident piratbit.pw

Волна через торрент piratbit.pw

Размер: 1.46 GB | Добавлен: 4 года 1 мес. назад | Торрент скачан:341 раз
Скачать  

28-12-2015 16:31 Волна Скачать торрент  

Волна / Bølgen
Год выпуска: 2015
Страна: Норвегия
Жанр: боевик, триллер, драма
Продолжительность: 01:44:54
Перевод: Дубляж - [Лицензия / iTunes]
Режиссер: Роар Утхауг
В ролях:

Кристоффер Йонер (Kristian), Томас Бо Ларсен (Phillip), Эни Даль Торп (Idun), Фридтьов Сохейм (Arvid Øvrebø), Йонас Хофф Офтебро (Sondre), Эдит Хогенруд-Сэнд (Julia), Элли Харбоа (Vibeke), Lado Hadzic (Bussjåfør), Артур Бернинг (Jacob Vikra), Лайла Гуди (Margot Valldal), Метта Агнета Хорн (Maria), Herman Bernhoft (Georg)
Описание:
Сигнал тревоги разносится над спящим городом. То, чего так боялись сейсмологи, сбылось - сильнейший тектонический сдвиг вызывает обрушение горного массива. Теперь гигантское смертоносное цунами движется прямо на людей. Опытный геолог Кристиан Айкорд оказывается в эпицентре самого страшного кошмара своей жизни.
Мировая премьера: 16 августа 2015

Качество: BDRip-AVC [Blu-ray Remux 1080p] Rip by schultz R.G.Resident
Формат: MKV
Видео: AVC, 1024x428 (2.40:1), 1609 kbps, 24 fps, 0,153 bpp
Аудио: AC3 / 5.1 / 48 kHz / 384 kbps / 16 bit

Код:

General
Unique ID                                : 196217867044991981432041519825415548480 (0x939E2FC37B7D026FA6CDC2E31FE7AE40)
Complete name                            : D:\download\Volna.2015.BDRip-AVC by schultz R.G.Resident.mkv
Format                                   : Matroska
Format version                           : Version 2
File size                                : 1.46 GiB
Duration                                 : 1h 44mn
Overall bit rate                         : 1 993 Kbps
Encoded date                             : UTC 2015-12-28 16:16:46
Writing application                      : mkvmerge v6.1.0 ('Old Devil') built on Mar  4 2013 09:10:42
Writing library                          : libebml v1.3.0 + libmatroska v1.4.0

Video
ID                                       : 1
Format                                   : AVC
Format/Info                              : Advanced Video Codec
Format profile                           : High@L4.1
Format settings, CABAC                   : Yes
Format settings, ReFrames                : 12 frames
Codec ID                                 : V_MPEG4/ISO/AVC
Duration                                 : 1h 44mn
Bit rate                                 : 1 609 Kbps
Width                                    : 1 024 pixels
Height                                   : 428 pixels
Display aspect ratio                     : 2.40:1
Frame rate                               : 24.000 fps
Color space                              : YUV
Chroma subsampling                       : 4:2:0
Bit depth                                : 8 bits
Scan type                                : Progressive
Bits/(Pixel*Frame)                       : 0.153
Stream size                              : 1.15 GiB (79%)
Writing library                          : x264 core 130 r2273 b3065e6
Encoding settings                        : cabac=1 / ref=12 / deblock=1:-2:-2 / analyse=0x3:0x113 / me=umh / subme=11 / psy=1 / psy_rd=1.00:0.15 / mixed_ref=1 / me_range=32 / chroma_me=1 / trellis=2 / 8x8dct=1 / cqm=0 / deadzone=21,11 / fast_pskip=1 / chroma_qp_offset=-3 / threads=12 / lookahead_threads=3 / sliced_threads=0 / nr=0 / decimate=0 / interlaced=0 / bluray_compat=0 / constrained_intra=0 / bframes=13 / b_pyramid=2 / b_adapt=2 / b_bias=0 / direct=3 / weightb=1 / open_gop=0 / weightp=2 / keyint=240 / keyint_min=24 / scenecut=40 / intra_refresh=0 / rc_lookahead=40 / rc=2pass / mbtree=1 / bitrate=1609 / ratetol=1.0 / qcomp=0.60 / qpmin=0 / qpmax=69 / qpstep=4 / cplxblur=20.0 / qblur=0.5 / vbv_maxrate=17500 / vbv_bufsize=14000 / nal_hrd=none / ip_ratio=1.40 / aq=1:0.80
Default                                  : Yes
Forced                                   : No

Audio
ID                                       : 2
Format                                   : AC-3
Format/Info                              : Audio Coding 3
Mode extension                           : CM (complete main)
Codec ID                                 : A_AC3
Duration                                 : 1h 44mn
Bit rate mode                            : Constant
Bit rate                                 : 384 Kbps
Channel(s)                               : 6 channels
Channel positions                        : Front: L C R, Side: L R, LFE
Sampling rate                            : 48.0 KHz
Bit depth                                : 16 bits
Compression mode                         : Lossy
Stream size                              : 288 MiB (19%)
Default                                  : Yes
Forced                                   : No


piratbit.pw



Скачать Волна через торрент http://pic1.kartinco.top/images/10/ejpqs.jpg Скачать фильм Волна через торрент бесплантно в хорошем качестве Описание: Сигнал тревоги разносится над спящим городом. То, чего так боялись сейсмологи, сбылось - сильнейший тектонический сдвиг вызывает ... 8.9 10 15
Info! Золотая раздача, скачанное не засчитывается.
Торрент: Зарегистрирован [2015-12-28 16:31] · скачан: 341 раз
Статус: √ проверено
Размер: 1.46 GB
Как cкачать? Как скачать Волна через торрент | qTorrent

28-11-2019 20:33  

Отключить всю рекламу на сайте

28-12-2015 17:57 Волна Скачать торрент  

Цунами в Норвегии? Надо глянуть.piratbit.pw



28-12-2015 20:35 Волна Скачать торрент  

самое тупое кино снятое в этом годуpiratbit.pw



28-12-2015 21:19 Волна Скачать торрент  

fantomus писал(а):

самое тупое кино снятое в этом году

Есть ещё тупее "Скандинавский форсаж" и "Орлеан"piratbit.pw



29-12-2015 14:24 Волна Скачать торрент  

очень слабенький фильм!piratbit.pw



    Дорогой пользователь! Огромная просьба, поблагодарите релизера, оцените раздачу и оставьте свои комментарий, если Вы скачали Волна через торрент бесплатно! Внесите свою лепту в развитие PiratBit!
    Комментировать посты могут только пользователи прошедшие не сложную регистрацию
    Показать сообщения:    

    Волна через торрент
    Скачать бесплатно Волна
    Волна скачать торрент
    Волна смотреть онлайн
    Cкачать фильм Волна бесплатно
    Волна скачать торрент в хорошем качестве
    Волна смотреть онлайн бесплатно в хорошем качестве


    Вы не можете начинать темы
    Вы не можете отвечать на сообщения
    Вы не можете редактировать свои сообщения
    Вы не можете удалять свои сообщения
    Вы не можете голосовать в опросах
    Вы не можете прикреплять файлы к сообщениям
    Вы можете скачивать файлы