Ссылка на приватное зеркало всего за 1$. Внимание количество ограничено!!!

iTunes

1+1

iTunes

мы

MV0

1

WEB-DLRip

Джокер

Пифагор

Ведьмак / The Witcher сериал

iTunes

ПШазам

iTunes

Оно 2

iTunes

30
pack

Вам бонус

ВАЖНО

!!Акция!!

Alien_RageХит недели

RePack

Resident Evil 21

ИГРА 18+

pack

RePack

jed

!!Акция!!

Alien_Rage

RePack

fifa19

RePack

Assassins Creed: Odyssey

RePack

NEED FOR SPEED™ PAYBACK

4 сезон

9 сезон

Бесстыжие 9 сезон

Все сериалы

все сериалы на PB.wtf

RePack

FAR CRY 5
  

Парни из Джерси / Jersey Boys (Клинт Иствуд) [2014, драма, биография, музыка, HDRip-AVC, Профессиональный многоголосый [НТВ+] R.G.Resident piratbit.pw

Парни из Джерси через торрент piratbit.pw

Размер: 2.18 GB | Добавлен: 4 года 2 мес. назад | Торрент скачан:27 раз
Скачать  

25-12-2015 14:28 Парни из Джерси Скачать торрент  

Парни из Джерси / Jersey Boys
««Everybody remembers it how they need to»»

Год выпуска: 2014
Страна: США
Жанр: драма, биография, музыка
Продолжительность: 02:14:17
Перевод: Профессиональный многоголосый [НТВ+]
Режиссер: Клинт Иствуд
В ролях:

Джон Ллойд Янг (Frankie Valli), Эрих Берген (Bob Gaudio), Майкл Ломенда (Nick Massi), Винсент Пьяцца (Tommy DeVito), Кристофер Уокен (Gyp DeCarlo), Стив Ширрипа (Vito), Кэтрин Нардуччи (Frankie's Mother), Лу Волп (Frankie's Father), Джонни Канниццаро (Nick DeVito), Майкл Патрик МакГилл (Officer Mike), Жаклин Мацарелла (Angry Woman), Лэйси Хэннан (Angela)
Описание:
Фильм является биографией группы The Four Seasons. Он рассказывает об их развитии, о пережитых личных столкновениях и трудных временах, и окончательном триумфе группы друзей, чья музыка стала символом целого поколения.
Мировая премьера: 5 июня 2014


MPAA: R - Лицам до 17 лет обязательно присутствие взрослого
Качество: HDRip-AVC Rip by schultz R.G.Resident
Формат: MKV
Видео: AVC, 1024x432 (2.35:1), 1940 kbps, 23,976 fps, 0,183 bpp
Аудио: AC3 / 5.1 / 48 kHz / 384 kbps / 16 bit

Код:

General
Unique ID                                : 200940579990311938627591196870131392392 (0x972BBF7D3A8AE29CBE9A11AF03AD1F88)
Complete name                            : D:\download\Parni.iz.Dzhersi.2O14.HDRip-AVC by schultz R.G.Resident.mkv
Format                                   : Matroska
Format version                           : Version 2
File size                                : 2.18 GiB
Duration                                 : 2h 14mn
Overall bit rate                         : 2 323 Kbps
Encoded date                             : UTC 2015-12-25 13:24:52
Writing application                      : mkvmerge v6.1.0 ('Old Devil') built on Mar  4 2013 09:10:42
Writing library                          : libebml v1.3.0 + libmatroska v1.4.0

Video
ID                                       : 1
Format                                   : AVC
Format/Info                              : Advanced Video Codec
Format profile                           : High@L4.1
Format settings, CABAC                   : Yes
Format settings, ReFrames                : 12 frames
Codec ID                                 : V_MPEG4/ISO/AVC
Duration                                 : 2h 14mn
Bit rate                                 : 1 940 Kbps
Width                                    : 1 024 pixels
Height                                   : 432 pixels
Display aspect ratio                     : 2.35:1
Frame rate                               : 23.976 fps
Color space                              : YUV
Chroma subsampling                       : 4:2:0
Bit depth                                : 8 bits
Scan type                                : Progressive
Bits/(Pixel*Frame)                       : 0.183
Stream size                              : 1.78 GiB (81%)
Writing library                          : x264 core 130 r2273 b3065e6
Encoding settings                        : cabac=1 / ref=12 / deblock=1:-2:-2 / analyse=0x3:0x113 / me=umh / subme=11 / psy=1 / psy_rd=1.00:0.15 / mixed_ref=1 / me_range=32 / chroma_me=1 / trellis=2 / 8x8dct=1 / cqm=0 / deadzone=21,11 / fast_pskip=1 / chroma_qp_offset=-3 / threads=12 / lookahead_threads=3 / sliced_threads=0 / nr=0 / decimate=0 / interlaced=0 / bluray_compat=0 / constrained_intra=0 / bframes=13 / b_pyramid=2 / b_adapt=2 / b_bias=0 / direct=3 / weightb=1 / open_gop=0 / weightp=2 / keyint=240 / keyint_min=23 / scenecut=40 / intra_refresh=0 / rc_lookahead=40 / rc=2pass / mbtree=1 / bitrate=1940 / ratetol=1.0 / qcomp=0.60 / qpmin=0 / qpmax=69 / qpstep=4 / cplxblur=20.0 / qblur=0.5 / vbv_maxrate=17500 / vbv_bufsize=14000 / nal_hrd=none / ip_ratio=1.40 / aq=1:0.80
Default                                  : Yes
Forced                                   : No

Audio
ID                                       : 2
Format                                   : AC-3
Format/Info                              : Audio Coding 3
Mode extension                           : CM (complete main)
Codec ID                                 : A_AC3
Duration                                 : 2h 14mn
Bit rate mode                            : Constant
Bit rate                                 : 384 Kbps
Channel(s)                               : 6 channels
Channel positions                        : Front: L C R, Side: L R, LFE
Sampling rate                            : 48.0 KHz
Bit depth                                : 16 bits
Compression mode                         : Lossy
Stream size                              : 369 MiB (17%)
Default                                  : Yes
Forced                                   : No


скриншот   скриншот   скриншот   скриншот   скриншот   скриншот  
piratbit.pw



Скачать Парни из Джерси через торрент http://pic1.kartinco.top/images/10/jtmfe.jpg Скачать фильм Парни из Джерси через торрент бесплантно в хорошем качестве Описание: Фильм является биографией группы The Four Seasons. Он рассказывает об их развитии, о пережитых личных столкновениях и трудных ... 10 10 3
Info! Золотая раздача, скачанное не засчитывается.
Торрент: Зарегистрирован [2015-12-25 14:28] · скачан: 27 раз
Статус: √ проверено
Размер: 2.18 GB
Как cкачать? Как скачать Парни из Джерси через торрент | qTorrent

28-11-2019 20:33  

Отключить всю рекламу на сайте

    Дорогой пользователь! Огромная просьба, поблагодарите релизера, оцените раздачу и оставьте свои комментарий, если Вы скачали Парни из Джерси через торрент бесплатно! Внесите свою лепту в развитие PiratBit!
    Комментировать посты могут только пользователи прошедшие не сложную регистрацию
    Показать сообщения:    

    Парни из Джерси через торрент
    Скачать бесплатно Парни из Джерси
    Парни из Джерси скачать торрент
    Парни из Джерси смотреть онлайн
    Cкачать фильм Парни из Джерси бесплатно
    Парни из Джерси скачать торрент в хорошем качестве
    Парни из Джерси смотреть онлайн бесплатно в хорошем качестве


    Вы не можете начинать темы
    Вы не можете отвечать на сообщения
    Вы не можете редактировать свои сообщения
    Вы не можете удалять свои сообщения
    Вы не можете голосовать в опросах
    Вы не можете прикреплять файлы к сообщениям
    Вы можете скачивать файлы