1 сезон

1 сезон

iTunes

1

КиноПоиск HD

Кинопоиск HD

iTunes

13

1 сезон

RePack

30

Ultimate

ВАЖНО

ИГРА 18+

pack

RePack

MK11
pack

Легкие деньги

RePack

jed

RePack

fifa19

RePack

RDR2

RePack

NEED FOR SPEED™ PAYBACK

4 сезон

9 сезон

Бесстыжие 9 сезон

Все сериалы

все сериалы на PB.wtf

RePack

FAR CRY 5
  
Magnet ссылка

Убийца / Sicario (Дени Вильнёв ) [2015, боевик, триллер, драма, криминал, детектив, BDRip 1080p] Авторский одноголосый [Дмитрий Есарев] + Original piratbit.pw

Убийца через торрент piratbit.pw

Размер: 11.02 GB | Добавлен: 5 лет 4 мес. назад | Торрент скачан:219 раз
Скачать  

22-12-2015 17:03 Убийца Скачать торрент  

Убийца / Sicario
«The border is just another line to cross»


Год выпуска: 2015
Страна: США
Жанр: боевик, триллер, драма, криминал, детектив
Продолжительность: 02:01:20
Перевод: Авторский (одноголосый)
Субтитры: английские
Режиссер: Дени Вильнёв
В ролях: Эмили Блант , Бенисио Дель Торо , Джош Бролин , Виктор Гарбер , Джон Бернтал , Дэниэл Калуя , Джеффри Донован , Рауль Трухильо , Хулио Седильо , Хэнк Роджерсон , Бернардо Галлегос , Максимилиано Эрнандес
Описание:
На американо-мексиканской границе женщина-полицейский сопровождает двух рейнджеров, которые преследуют наркобарона. Она не подозревает, что по ту сторону границы есть тайное место, где не действуют никакие законы и царят насилие и разврат.

R - Лицам до 17 лет обязательно присутствие взрослого
Качество: BDRip 1080p
Контейнер (Расширение): MKV
Видео: 1920x800, 11212 Кбит/сек, 23,976 кадр/сек, 0,304 Бит/[Пиксели*Кадры]
Аудио №1: русский / AC3 / 5.1 / 48 kHz / 448 kbps / 16 bit |Авторский, Д. Есарев (цензурный)|
Аудио №2: русский / AC3 / 5.1 / 48 kHz / 448 kbps / 16 bit |Авторский, Д. Есарев (ненорматив)|
Аудио №3: английский / AC3 / 5.1 / 48 kHz / 640 kbps / 16 bit
Навигация по главам(Чаптеры): есть
Видеоряд HDMaNiAcS, Encoder: munkmanРелиз от: Сообщество:

Цитата:

Перевод Дмитрия Есарева доступен благодаря: mv73, dikii, mihey10, DREADG, napaHouk, shurikkein, -ALCASTER-, nortonn, Skazhutin. Работа со звуком mihaildns.

  • По словам режиссёра, инвесторы фильма хотели, чтобы роль Эмили Блант была переписана для мужчины. Но Дени Вильнёв и сценарист Тейлор Шеридан настояли, чтобы главной героиней оставалась женщина.
  • Код:

    Format                                   : Matroska
    Format version                           : Version 2
    File size                                : 11.0 GiB
    Duration                                 : 2h 1mn
    Overall bit rate                         : 13.0 Mbps
    Movie name                               : Sicario.(2015).BDRip.1080p.[denis100]
    Encoded date                             : UTC 2015-12-22 16:29:48
    Writing application                      : mkvmerge v5.8.0 ('No Sleep / Pillow') built on Sep  2 2012 15:37:04
    Writing library                          : libebml v1.2.3 + libmatroska v1.3.0

    Video
    ID                                       : 1
    Format                                   : AVC
    Format/Info                              : Advanced Video Codec
    Format profile                           : High@L4.1
    Format settings, CABAC                   : Yes
    Format settings, ReFrames                : 5 frames
    Codec ID                                 : V_MPEG4/ISO/AVC
    Duration                                 : 2h 1mn
    Bit rate                                 : 11.2 Mbps
    Width                                    : 1 920 pixels
    Height                                   : 800 pixels
    Display aspect ratio                     : 2.40:1
    Frame rate                               : 23.976 fps
    Color space                              : YUV
    Chroma subsampling                       : 4:2:0
    Bit depth                                : 8 bits
    Scan type                                : Progressive
    Bits/(Pixel*Frame)                       : 0.304
    Stream size                              : 9.50 GiB (86%)
    Title                                    : Sicario.(2015).BDRip.1080p.[denis100]
    Writing library                          : x264 core 148 r2638kMod 7599210
    Encoding settings                        : cabac=1 / ref=5 / deblock=1:-3:-3 / analyse=0x3:0x113 / me=tesa / subme=11 / psy=1 / fade_compensate=0.00 / psy_rd=1.00:0.00 / mixed_ref=1 / me_range=24 / chroma_me=1 / trellis=2 / 8x8dct=1 / cqm=0 / deadzone=21,11 / fast_pskip=0 / chroma_qp_offset=-2 / threads=12 / lookahead_threads=2 / sliced_threads=0 / nr=0 / decimate=0 / interlaced=0 / bluray_compat=0 / constrained_intra=0 / fgo=0 / bframes=8 / b_pyramid=2 / b_adapt=2 / b_bias=0 / direct=1 / weightb=1 / open_gop=0 / weightp=2 / keyint=240 / keyint_min=23 / scenecut=40 / intra_refresh=0 / rc_lookahead=40 / rc=crf / mbtree=0 / crf=16.0000 / qcomp=0.65 / qpmin=0 / qpmax=69 / qpstep=4 / vbv_maxrate=62500 / vbv_bufsize=78125 / crf_max=0.0 / nal_hrd=none / filler=0 / ip_ratio=1.30 / pb_ratio=1.20 / aq=1:0.90
    Language                                 : English
    Default                                  : Yes
    Forced                                   : No

    Audio #1
    ID                                       : 2
    Format                                   : AC-3
    Format/Info                              : Audio Coding 3
    Mode extension                           : CM (complete main)
    Codec ID                                 : A_AC3
    Duration                                 : 2h 1mn
    Bit rate mode                            : Constant
    Bit rate                                 : 448 Kbps
    Channel(s)                               : 6 channels
    Channel positions                        : Front: L C R, Side: L R, LFE
    Sampling rate                            : 48.0 KHz
    Bit depth                                : 16 bits
    Compression mode                         : Lossy
    Stream size                              : 389 MiB (3%)
    Title                                    : Авторский, Д. Есарев (цензурный)
    Language                                 : Russian
    Default                                  : No
    Forced                                   : No

    Audio #2
    ID                                       : 3
    Format                                   : AC-3
    Format/Info                              : Audio Coding 3
    Mode extension                           : CM (complete main)
    Codec ID                                 : A_AC3
    Duration                                 : 2h 1mn
    Bit rate mode                            : Constant
    Bit rate                                 : 448 Kbps
    Channel(s)                               : 6 channels
    Channel positions                        : Front: L C R, Side: L R, LFE
    Sampling rate                            : 48.0 KHz
    Bit depth                                : 16 bits
    Compression mode                         : Lossy
    Stream size                              : 389 MiB (3%)
    Title                                    : Авторский, Д. Есарев (ненорматив)
    Language                                 : Russian
    Default                                  : No
    Forced                                   : No

    Audio #3
    ID                                       : 4
    Format                                   : AC-3
    Format/Info                              : Audio Coding 3
    Mode extension                           : CM (complete main)
    Codec ID                                 : A_AC3
    Duration                                 : 2h 1mn
    Bit rate mode                            : Constant
    Bit rate                                 : 640 Kbps
    Channel(s)                               : 6 channels
    Channel positions                        : Front: L C R, Side: L R, LFE
    Sampling rate                            : 48.0 KHz
    Bit depth                                : 16 bits
    Compression mode                         : Lossy
    Stream size                              : 555 MiB (5%)
    Language                                 : English
    Default                                  : No
    Forced                                   : No

    Text
    ID                                       : 5
    Format                                   : UTF-8
    Codec ID                                 : S_TEXT/UTF8
    Codec ID/Info                            : UTF-8 Plain Text
    Language                                 : English
    Default                                  : No
    Forced                                   : No

    Menu
    00:00:00.000                             : en:Chapter 01
    00:07:14.351                             : en:Chapter 02
    00:12:55.108                             : en:Chapter 03
    00:20:04.370                             : en:Chapter 04
    00:25:24.815                             : en:Chapter 05
    00:32:11.596                             : en:Chapter 06
    00:39:24.821                             : en:Chapter 07
    00:46:15.314                             : en:Chapter 08
    00:53:24.576                             : en:Chapter 09
    01:01:40.322                             : en:Chapter 10
    01:10:49.120                             : en:Chapter 11
    01:18:02.887                             : en:Chapter 12
    01:30:59.371                             : en:Chapter 13
    01:36:57.770                             : en:Chapter 14

    piratbit.pw



    Скачать Убийца через торрент http://i75.fastpic.ru/big/2015/1222/0e/424061c48bb668e4b66187176a0f230e.png Скачать фильм Убийца через торрент бесплантно в хорошем качестве Описание:На американо-мексиканской границе женщина-полицейский сопровождает двух рейнджеров, которые преследуют наркобарона. Она не ... 8.6 10 7
    Info! Золотая раздача, скачанное не засчитывается.
    Торрент: Зарегистрирован [2015-12-22 17:03] · скачан: 219 раз
    Статус: √ проверено
    Размер: 11.02 GB
    Как cкачать? Как скачать Убийца через торрент | UTorrent

    % Раздел Тема Автор DL S | L
    Фильмы с авторской озвучкой [ 5.13 GB ] Убийца / Sicario [2015 BDRip 720p] Авторский одноголосый [Дмитрий Есарев] + Original Serejechka Скачать
    1 | 0
    Фильмы с авторской озвучкой [ 2.18 GB ] Убийца / Sicario [2015 BDRip-AVC] Авторский одноголосый [Дмитрий Есарев] + Original _denis_100 Скачать
    1 | 0

    28-11-2019 20:33  

    Отключить всю рекламу на сайте

    23-12-2015 19:39 Убийца Скачать торрент  

    Качественная картинка. Не напряжный перевод. Фильм со смыслом, хорошим сюжетом. Ироничный однако, как и все и везде. Советую! piratbit.pw



      Дорогой пользователь! Огромная просьба, поблагодарите релизера, оцените раздачу и оставьте свои комментарий, если Вы скачали Убийца через торрент бесплатно! Внесите свою лепту в развитие PiratBit!
      Комментировать посты могут только пользователи прошедшие не сложную регистрацию
      Показать сообщения:    

      Убийца через торрент
      Скачать бесплатно Убийца
      Убийца скачать торрент
      Убийца смотреть онлайн
      Cкачать фильм Убийца бесплатно
      Убийца скачать торрент в хорошем качестве
      Убийца смотреть онлайн бесплатно в хорошем качестве


      Вы не можете начинать темы
      Вы не можете отвечать на сообщения
      Вы не можете редактировать свои сообщения
      Вы не можете удалять свои сообщения
      Вы не можете голосовать в опросах
      Вы не можете прикреплять файлы к сообщениям
      Вы можете скачивать файлы