Ссылка на приватное зеркало всего за 1$. Внимание количество ограничено!!!

iTunes

1+1

iTunes

мы

MV0

1

WEB-DLRip

Джокер

Пифагор

Ведьмак / The Witcher сериал

iTunes

ПШазам

iTunes

Оно 2

iTunes

30
pack

Вам бонус

ВАЖНО

!!Акция!!

Alien_RageХит недели

RePack

Resident Evil 21

ИГРА 18+

pack

RePack

jed

!!Акция!!

Alien_Rage

RePack

fifa19

RePack

Assassins Creed: Odyssey

RePack

NEED FOR SPEED™ PAYBACK

4 сезон

9 сезон

Бесстыжие 9 сезон

Все сериалы

все сериалы на PB.wtf

RePack

FAR CRY 5
  

Добро пожаловать ко мне / Welcome to Me (Шира Пивен) [2014, драма, комедия, HDRip-AVC, AVO А. Глинский] R.G.Resident piratbit.pw

Добро пожаловать ко мне через торрент piratbit.pw

Размер: 2.18 GB | Добавлен: 4 года 2 мес. назад | Торрент скачан:21 раз
Скачать  

21-12-2015 19:41 Добро пожаловать ко мне Скачать торрент  

Добро пожаловать ко мне / Welcome to Me
««Alice is going to be on TV whether you like it or not»»

Год выпуска: 2014
Страна: США
Жанр: драма, комедия
Продолжительность: 01:27:19
Перевод: Авторский (одноголосый) А. Глинский
Режиссер: Шира Пивен
В ролях:

Кристен Уиг (Alice Klieg), Уэс Бентли (Gabe Ruskin), Линда Карделлини (Gina Selway), Джоан Кьюсак (Dawn Hurley), Лоретта Дивайн (Barb Vaughn), Дженнифер Джейсон Ли (Deb Moseley), Томас Манн (Rainer Ybarra), Джеймс Марсден (Rich Ruskin), Тим Роббинс (Dr. Daryl Moffet), Алан Тьюдик (Ted Thurber), Кулап Вилейсэк (Grace Dao), Митч Силпа (Derek)
Описание:
Сюжет расскажет о женщине с диссоциативным расстройством личности, которая выигрывает в лотерею и решает потратить все свои деньги на собственное телешоу, рассказывающее о ее жизни.
Мировая премьера: 5 сентября 2014

MPAA: R - Лицам до 17 лет обязательно присутствие взрослого
Качество: HDRip-AVC Rip by schultz R.G.Resident
Формат: MKV
Видео: AVC, 1024x576 (16:9), 3379 kbps, 23,976 fps, 0,239 bpp
Аудио: AC3 / 2.0 / 48 kHz / 192 kbps / 16 bit

Код:

General
Unique ID                                : 223596872739906802756352820551662939913 (0xA83730F6F2717C0C9268C1C969E3AF09)
Complete name                            : D:\download\Welcome.to.Me.2014.HDRip-AVC by schultz R.G.Resident.mkv
Format                                   : Matroska
Format version                           : Version 2
File size                                : 2.18 GiB
Duration                                 : 1h 27mn
Overall bit rate                         : 3 570 Kbps
Encoded date                             : UTC 2015-12-21 15:49:45
Writing application                      : mkvmerge v6.1.0 ('Old Devil') built on Mar  4 2013 09:10:42
Writing library                          : libebml v1.3.0 + libmatroska v1.4.0

Video
ID                                       : 1
Format                                   : AVC
Format/Info                              : Advanced Video Codec
Format profile                           : High@L4.1
Format settings, CABAC                   : Yes
Format settings, ReFrames                : 12 frames
Codec ID                                 : V_MPEG4/ISO/AVC
Duration                                 : 1h 27mn
Bit rate                                 : 3 379 Kbps
Width                                    : 1 024 pixels
Height                                   : 576 pixels
Display aspect ratio                     : 16:9
Frame rate                               : 23.976 fps
Color space                              : YUV
Chroma subsampling                       : 4:2:0
Bit depth                                : 8 bits
Scan type                                : Progressive
Bits/(Pixel*Frame)                       : 0.239
Stream size                              : 2.02 GiB (93%)
Writing library                          : x264 core 130 r2273 b3065e6
Encoding settings                        : cabac=1 / ref=12 / deblock=1:-2:-2 / analyse=0x3:0x113 / me=umh / subme=11 / psy=1 / psy_rd=1.00:0.15 / mixed_ref=1 / me_range=32 / chroma_me=1 / trellis=2 / 8x8dct=1 / cqm=0 / deadzone=21,11 / fast_pskip=1 / chroma_qp_offset=-3 / threads=12 / lookahead_threads=2 / sliced_threads=0 / nr=0 / decimate=0 / interlaced=0 / bluray_compat=0 / constrained_intra=0 / bframes=9 / b_pyramid=2 / b_adapt=2 / b_bias=0 / direct=3 / weightb=1 / open_gop=0 / weightp=2 / keyint=240 / keyint_min=23 / scenecut=40 / intra_refresh=0 / rc_lookahead=40 / rc=2pass / mbtree=1 / bitrate=3379 / ratetol=1.0 / qcomp=0.60 / qpmin=0 / qpmax=69 / qpstep=4 / cplxblur=20.0 / qblur=0.5 / vbv_maxrate=17500 / vbv_bufsize=14000 / nal_hrd=none / ip_ratio=1.40 / aq=1:0.80
Default                                  : Yes
Forced                                   : No

Audio
ID                                       : 2
Format                                   : AC-3
Format/Info                              : Audio Coding 3
Mode extension                           : CM (complete main)
Codec ID                                 : A_AC3
Duration                                 : 1h 27mn
Bit rate mode                            : Constant
Bit rate                                 : 192 Kbps
Channel(s)                               : 2 channels
Channel positions                        : Front: L R
Sampling rate                            : 48.0 KHz
Bit depth                                : 16 bits
Compression mode                         : Lossy
Stream size                              : 120 MiB (5%)
Default                                  : Yes
Forced                                   : No


piratbit.pw



Скачать Добро пожаловать ко мне через торрент http://i73.fastpic.ru/big/2015/1221/b2/b48b9adc3f44a84d90d3d7a01cb29ab2.png Скачать фильм Добро пожаловать ко мне через торрент бесплантно в хорошем качестве Описание: Сюжет расскажет о женщине с диссоциативным расстройством личности, которая выигрывает в лотерею и решает потратить все свои ... 7.8 10 4
Info! Золотая раздача, скачанное не засчитывается.
Торрент: Зарегистрирован [2015-12-21 19:41] · скачан: 21 раз
Статус: √ проверено
Размер: 2.18 GB
Как cкачать? Как скачать Добро пожаловать ко мне через торрент | qTorrent

28-11-2019 20:33  

Отключить всю рекламу на сайте

    Дорогой пользователь! Огромная просьба, поблагодарите релизера, оцените раздачу и оставьте свои комментарий, если Вы скачали Добро пожаловать ко мне через торрент бесплатно! Внесите свою лепту в развитие PiratBit!
    Комментировать посты могут только пользователи прошедшие не сложную регистрацию
    Показать сообщения:    

    Добро пожаловать ко мне через торрент
    Скачать бесплатно Добро пожаловать ко мне
    Добро пожаловать ко мне скачать торрент
    Добро пожаловать ко мне смотреть онлайн
    Cкачать фильм Добро пожаловать ко мне бесплатно
    Добро пожаловать ко мне скачать торрент в хорошем качестве
    Добро пожаловать ко мне смотреть онлайн бесплатно в хорошем качестве


    Вы не можете начинать темы
    Вы не можете отвечать на сообщения
    Вы не можете редактировать свои сообщения
    Вы не можете удалять свои сообщения
    Вы не можете голосовать в опросах
    Вы не можете прикреплять файлы к сообщениям
    Вы можете скачивать файлы