Ссылка на приватное зеркало всего за 1$. Внимание количество ограничено!!!

iTunes

1+1

iTunes

мы

MV0

1

WEB-DLRip

Джокер

Пифагор

Ведьмак / The Witcher сериал

iTunes

ПШазам

iTunes

Оно 2

iTunes

30
pack

Вам бонус

ВАЖНО

!!Акция!!

Alien_RageХит недели

RePack

Resident Evil 21

ИГРА 18+

pack

RePack

jed

!!Акция!!

Alien_Rage

RePack

fifa19

RePack

Assassins Creed: Odyssey

RePack

NEED FOR SPEED™ PAYBACK

4 сезон

9 сезон

Бесстыжие 9 сезон

Все сериалы

все сериалы на PB.wtf

RePack

FAR CRY 5
  

128 ударов сердца в минуту / We Are Your Friends (Макс Джозеф) [2015 г., драма, мелодрама, музыка, HDRip, Дубляж iTunes] от R.G. Resident piratbit.pw

128 ударов сердца в минуту через торрент piratbit.pw

Размер: 1.46 GB | Добавлен: 4 года 2 мес. назад | Торрент скачан:179 раз
Скачать  

21-12-2015 16:17 128 ударов сердца в минуту Скачать торрент  

128 ударов сердца в минуту / We Are Your FriendsГод выпуска: 2015
Страна: Великобритания, Франция, США
Жанр: драма, мелодрама, музыка
Продолжительность: 01:36:02
Перевод: Дубляж | iTunes
Субтитры: Нет

Режиссер: Макс Джозеф
Продюссер: Тим Беван, Лиза Чейсин, Эрик Феллнер
Сценарий: Макс Джозеф, Миган Оппенхаймер, Ричард Силверман

Бюджет: $6 000 000
Премьера в мире: 11 августа 2015



В ролях: Зак Эфрон, Уэс Бентли, Эмили Ратаковски, Джонни Уэстон, Шайло Фернандес, Алекс Шеффер, Джон Бернтал, Алисия Коппола, Уайли М. Пикетт, Джон Абрахамс, Евгений Вальц, Иван Жарков, Наталья Терешкова, Николай Быстров, Пётр Иващенко

Описание: Лос-Анджелес, Калифорния — это мир бесконечных возможностей днем и нереальных голливудских вечеринок ночью. Оба этих мира стремится покорить молодой DJ по имени Коул, неустанно работающий над своим пробивным треком, который должен взорвать весь мир. Его замечает и берет под крыло опытный продюсер Джеймс, но все становится крайне запутанным, когда Коул влюбляется в молодую подружку Джеймса. Вскоре перед Коулом встает непростой выбор между любовью, верностью, старыми друзьями и будущим, о котором он так мечтает.

Качество: HDRip | BDRip 720p
Формат: AVI
Видео кодек: XviD
Аудио кодек: AC3
Видео: 704x384 (1.83:1), 24.000 fps, XviD build 73 ~1779 kbps avg, 0.27 bit/pixel
Аудио: 48 kHz, AC3 Dolby Digital, 3/2 (L,C,R,l,r) + LFE ch, ~384 kbps



Автор рипа: Dean24
| | R.G. Resident
Общее
Полное имя : D:\Мои документы\Фильмы\Сайт\We.Are.Your.Friends.HDRip.avi
Формат : AVI
Формат/Информация : Audio Video Interleave
Размер файла : 1,46 Гбайт
Продолжительность : 1 ч. 36 м.
Общий поток : 2172 Кбит/сек
Программа кодирования : VirtualDubMod 1.5.10.3 | www.virtualdub-fr.org || (build 2550/release)
Библиотека кодирования : VirtualDubMod build 2550/release

Видео
Идентификатор : 0
Формат : MPEG-4 Visual
Профиль формата : Advanced Simple@L5
Параметр BVOP формата : 3
Параметр QPel формата : Нет
Параметр GMC формата : Без точки перехода
Параметр матрицы формата : Default (H.263)
Идентификатор кодека : XVID
Идентификатор кодека/Подсказка : XviD
Продолжительность : 1 ч. 36 м.
Битрейт : 1779 Кбит/сек
Ширина : 704 пикселя
Высота : 384 пикселя
Соотношение сторон : 1,85:1
Частота кадров : 24,000 кадра/сек
Цветовое пространство : YUV
Субдискретизация насыщенности : 4:2:0
Битовая глубина : 8 бит
Тип развёртки : Прогрессивная
Метод сжатия : С потерями
Бит/(Пиксели*Кадры) : 0.274
Размер потока : 1,19 Гбайт (82%)
Библиотека кодирования : XviD 73

Аудио
Идентификатор : 1
Формат : AC-3
Формат/Информация : Audio Coding 3
Расширение режима : CM (complete main)
Параметр Endianness формата : Big
Идентификатор кодека : 2000
Продолжительность : 1 ч. 35 м.
Вид битрейта : Постоянный
Битрейт : 384 Кбит/сек
Каналы : 6 каналов
Расположение каналов : Front: L C R, Side: L R, LFE
Частота : 48,0 КГц
Битовая глубина : 16 бит
Метод сжатия : С потерями
Размер потока : 263 Мбайт (18%)
Выравнивание : Разделение по промежуткам
Продолжительность промежутка : 42 мс. (1,00 видеокадр)
Время предзагрузки промежутка : 500 мс.

piratbit.pw



Скачать 128 ударов сердца в минуту через торрент http://i74.fastpic.ru/big/2015/1221/b4/52ac4d93e45ba963105a67d52a958db4.png Скачать фильм 128 ударов сердца в минуту через торрент бесплантно в хорошем качестве Описание: Лос-Анджелес, Калифорния — это мир бесконечных возможностей днем и нереальных голливудских вечеринок ночью. Оба этих мира ... 10 10 8
Торрент: Зарегистрирован [2015-12-21 16:17] · скачан: 179 раз
Статус: √ проверено
Размер: 1.46 GB
Как cкачать? Как скачать 128 ударов сердца в минуту через торрент | qTorrent

28-11-2019 20:33  

Отключить всю рекламу на сайте

22-12-2015 12:48 128 ударов сердца в минуту Скачать торрент  

Смотрел в кино, разок глянуть вполне можно, рекомендую)))piratbit.pw



22-12-2015 16:59 128 ударов сердца в минуту Скачать торрент  

Посмотреть можно, когда смотреть нечего...piratbit.pw



    Дорогой пользователь! Огромная просьба, поблагодарите релизера, оцените раздачу и оставьте свои комментарий, если Вы скачали 128 ударов сердца в минуту через торрент бесплатно! Внесите свою лепту в развитие PiratBit!
    Комментировать посты могут только пользователи прошедшие не сложную регистрацию
    Показать сообщения:    

    128 ударов сердца в минуту через торрент
    Скачать бесплатно 128 ударов сердца в минуту
    128 ударов сердца в минуту скачать торрент
    128 ударов сердца в минуту смотреть онлайн
    Cкачать фильм 128 ударов сердца в минуту бесплатно
    128 ударов сердца в минуту скачать торрент в хорошем качестве
    128 ударов сердца в минуту смотреть онлайн бесплатно в хорошем качестве


    Вы не можете начинать темы
    Вы не можете отвечать на сообщения
    Вы не можете редактировать свои сообщения
    Вы не можете удалять свои сообщения
    Вы не можете голосовать в опросах
    Вы не можете прикреплять файлы к сообщениям
    Вы можете скачивать файлы