Ссылка на приватное зеркало всего за 1$. Внимание количество ограничено!!!

iTunes

1+1

iTunes

мы

MV0

1

WEB-DLRip

Джокер

Пифагор

Ведьмак / The Witcher сериал

iTunes

ПШазам

iTunes

Оно 2

iTunes

30
pack

Вам бонус

ВАЖНО

!!Акция!!

Alien_RageХит недели

RePack

Resident Evil 21

ИГРА 18+

pack

RePack

jed

!!Акция!!

Alien_Rage

RePack

fifa19

RePack

Assassins Creed: Odyssey

RePack

NEED FOR SPEED™ PAYBACK

4 сезон

9 сезон

Бесстыжие 9 сезон

Все сериалы

все сериалы на PB.wtf

RePack

FAR CRY 5
  

Люди Икс: Дни минувшего будущего / X-Men: Days of Future Past (Брайан Сингер) [2014 г., фантастика, боевик, триллер, приключения, HDRip-AVC, Дубляж (iTunes) + Оригинал] от R.G. Resident piratbit.pw

Люди Икс: Дни минувшего будущего через торрент piratbit.pw

Размер: 3.46 GB | Добавлен: 4 года 2 мес. назад | Торрент скачан:534 раза
Скачать  

21-12-2015 12:06 Люди Икс: Дни минувшего будущего Скачать торрент  

Люди Икс: Дни минувшего будущего / X-Men: Days of Future PastГод выпуска: 2014
Страна: США, Великобритания, Канада
Жанр: фантастика, боевик, триллер, приключения
Продолжительность: 02:28:45 | Расширенная версия - "The Rogue Cut"
Перевод: Дубляж | iTunes + Оригинал
Субтитры: Русские (полные и форсированные), Английские (полные и форсированные) | UTF-8

Режиссер: Брайан Сингер
Продюссер: Саймон Кинберг, Хатч Паркер, Лорен Шулер Доннер
Сценарий: Саймон Кинберг, Джейн Голдман, Мэттью Вон

Бюджет: $200 000 000
Премьера в мире: 10 мая 2014



В ролях: Джеймс МакЭвой, Майкл Фассбендер, Хью Джекман, Дженнифер Лоуренс, Николас Холт, Питер Динклэйдж, Иэн МакКеллен, Патрик Стюарт, Эллен Пейдж, Холли Берри, Евгений Вальц, Илья Исаев, Александр Рахленко, Сергей Чихачев, Татьяна Шитова

Описание: В недалёком будущем мутанты близки к истреблению роботами-охотниками на мутантов Стражами. Единственная надежда для мутантов выжить — предотвратить череду роковых событий, приведших к появлению Стражей. С помощью своих способностей, Китти Прайд перемещает сознание Росомахи в его молодое тело в 1973 год. В прошлом всё оказывается не так радужно: молодой Профессор Икс окончательно разочарован в своих идеях, Магнето содержится в тюрьме глубоко под землёй, а человечество не знает как реагировать на широкое появление мутантов...

Качество: HDRip-AVC | BDRip 1080p
Формат: MKV
Видео кодек: H.264
Аудио кодек: AC3
Видео: 1024x424 (2,40:1), 23,976 fps, AVC (High L.4.1) ~2500 kbps, 0.240 bit/pixel
Аудио#1: 48 kHz, AC3 Dolby Digital, 3/2 (L,C,R,l,r) + LFE ch, ~384 kbps |RUS|
Аудио#2: 48 kHz, AC3 Dolby Digital, 3/2 (L,C,R,l,r) + LFE ch, ~448 kbps |ENG|



Автор рипа: Dean24
| | R.G. Resident

_____________________________

log

avs [info]: 1024x424p 1:1 @ 2500000/104271 fps (cfr)
x264 [info]: using SAR=1/1
x264 [info]: using cpu capabilities: MMX2 SSE2Fast SSSE3 SSE4.2
x264 [info]: profile High, level 4.1
x264 [info]: frame I:2444 Avg QP:14.00 size: 87349
x264 [info]: frame P:51816 Avg QP:17.25 size: 25441
x264 [info]: frame B:159743 Avg QP:19.02 size: 7875
x264 [info]: consecutive B-frames: 4.0% 4.2% 13.2% 18.6% 14.6% 37.2% 4.6% 2.0% 1.6%
x264 [info]: mb I I16..4: 4.8% 74.4% 20.8%
x264 [info]: mb P I16..4: 0.9% 12.2% 2.1% P16..4: 33.4% 29.1% 16.9% 0.0% 0.0% skip: 5.5%
x264 [info]: mb B I16..4: 0.0% 0.9% 0.2% B16..8: 37.7% 15.0% 4.8% direct: 6.3% skip:35.0% L0:42.3% L1:43.5% BI:14.2%
x264 [info]: 8x8 transform intra:78.8% inter:55.7%
x264 [info]: direct mvs spatial:97.8% temporal:2.2%
x264 [info]: coded y,uvDC,uvAC intra: 92.2% 85.1% 63.7% inter: 28.4% 22.1% 10.0%
x264 [info]: i16 v,h,dc,p: 22% 14% 12% 53%
x264 [info]: i8 v,h,dc,ddl,ddr,vr,hd,vl,hu: 13% 9% 8% 9% 13% 12% 13% 11% 13%
x264 [info]: i4 v,h,dc,ddl,ddr,vr,hd,vl,hu: 13% 8% 3% 10% 15% 14% 14% 11% 13%
x264 [info]: i8c dc,h,v,p: 43% 23% 18% 16%
x264 [info]: Weighted P-Frames: Y:6.8% UV:4.1%
x264 [info]: ref P L0: 50.9% 10.5% 16.0% 5.7% 4.5% 2.8% 2.6% 1.3% 1.2% 0.9% 0.9% 0.7% 0.7% 0.5% 0.5% 0.4%
x264 [info]: ref B L0: 73.0% 12.2% 4.7% 2.7% 1.7% 1.7% 1.0% 0.8% 0.6% 0.5% 0.3% 0.3% 0.3% 0.2% 0.1%
x264 [info]: ref B L1: 92.6% 7.4%
x264 [info]: kb/s:2500.38
_____________________________

Общее
Уникальный идентификатор : 209359575394841101662273944782565897893 (0x9D8130029A42717CA941C19677A176A5)
Полное имя : D:\Мои документы\Фильмы\Сайт\X-Men.Days.of.Future.Past.The.Rogue.Cut.HDRip-AVC.mkv
Формат : Matroska
Версия формата : Version 4 / Version 2
Размер файла : 3,46 Гбайт
Продолжительность : 2 ч. 28 м.
Общий поток : 3335 Кбит/сек
Название фильма : X-Men.Daysof.Future.Past.The.Rogue.Cut.HDRip-AVC.by.Dean24.R.G.Resident
Дата кодирования : UTC 2015-12-21 11:33:31
Программа кодирования : mkvmerge v8.3.0 ('Over the Horizon') 64bit
Библиотека кодирования : libebml v1.3.1 + libmatroska v1.4.2
DURATION : 02:18:39.198000000
NUMBER_OF_FRAMES : 1428
NUMBER_OF_BYTES : 78926
_STATISTICS_WRITING_APP : mkvmerge v8.3.0 ('Over the Horizon') 64bit
_STATISTICS_WRITING_DATE_UTC : 2015-12-21 11:33:31
_STATISTICS_TAGS : BPS DURATION NUMBER_OF_FRAMES NUMBER_OF_BYTES

Видео
Идентификатор : 1
Формат : AVC
Формат/Информация : Advanced Video Codec
Профиль формата : High@L4.1
Параметр CABAC формата : Да
Параметр ReFrames формата : 16 кадров
Идентификатор кодека : V_MPEG4/ISO/AVC
Продолжительность : 2 ч. 28 м.
Битрейт : 2500 Кбит/сек
Ширина : 1024 пикселя
Высота : 424 пикселя
Соотношение сторон : 2,40:1
Режим частоты кадров : Постоянный
Частота кадров : 23,976 кадра/сек
Цветовое пространство : YUV
Субдискретизация насыщенности : 4:2:0
Битовая глубина : 8 бит
Тип развёртки : Прогрессивная
Бит/(Пиксели*Кадры) : 0.240
Размер потока : 2,53 Гбайт (73%)
Библиотека кодирования : x264 core 146 r2538 121396c
Настройки программы : cabac=1 / ref=16 / deblock=1:-2:-2 / analyse=0x3:0x113 / me=umh / subme=10 / psy=1 / psy_rd=1.00:0.00 / mixed_ref=1 / me_range=32 / chroma_me=1 / trellis=2 / 8x8dct=1 / cqm=0 / deadzone=21,11 / fast_pskip=0 / chroma_qp_offset=-2 / threads=6 / lookahead_threads=1 / sliced_threads=0 / nr=0 / decimate=0 / interlaced=0 / bluray_compat=0 / constrained_intra=0 / bframes=8 / b_pyramid=2 / b_adapt=2 / b_bias=0 / direct=3 / weightb=1 / open_gop=0 / weightp=2 / keyint=240 / keyint_min=23 / scenecut=40 / intra_refresh=0 / rc_lookahead=60 / rc=2pass / mbtree=0 / bitrate=2500 / ratetol=1.0 / qcomp=0.60 / qpmin=0 / qpmax=69 / qpstep=4 / cplxblur=20.0 / qblur=0.5 / vbv_maxrate=14000 / vbv_bufsize=14000 / nal_hrd=none / filler=0 / ip_ratio=1.40 / pb_ratio=1.30 / aq=1:0.80
Default : Да
Forced : Нет

Аудио #1
Идентификатор : 2
Формат : AC-3
Формат/Информация : Audio Coding 3
Расширение режима : CM (complete main)
Параметр Endianness формата : Big
Идентификатор кодека : A_AC3
Продолжительность : 2 ч. 28 м.
Вид битрейта : Постоянный
Битрейт : 384 Кбит/сек
Каналы : 6 каналов
Расположение каналов : Front: L C R, Side: L R, LFE
Частота : 48,0 КГц
Битовая глубина : 16 бит
Метод сжатия : С потерями
Размер потока : 409 Мбайт (12%)
Заголовок : iTunes
Язык : Russian
Default : Да
Forced : Нет

Аудио #2
Идентификатор : 3
Формат : AC-3
Формат/Информация : Audio Coding 3
Расширение режима : CM (complete main)
Параметр Endianness формата : Big
Идентификатор кодека : A_AC3
Продолжительность : 2 ч. 28 м.
Вид битрейта : Постоянный
Битрейт : 448 Кбит/сек
Каналы : 6 каналов
Расположение каналов : Front: L C R, Side: L R, LFE
Частота : 48,0 КГц
Битовая глубина : 16 бит
Метод сжатия : С потерями
Размер потока : 477 Мбайт (13%)
Default : Нет
Forced : Нет

Текст #1
Идентификатор : 4
Формат : UTF-8
Идентификатор кодека : S_TEXT/UTF8
Идентификатор кодека/Информация : UTF-8 Plain Text
Заголовок : Forced
Язык : English
Default : Да
Forced : Нет

Текст #2
Идентификатор : 5
Формат : UTF-8
Идентификатор кодека : S_TEXT/UTF8
Идентификатор кодека/Информация : UTF-8 Plain Text
Заголовок : Full
Язык : English
Default : Нет
Forced : Нет

Текст #3
Идентификатор : 6
Формат : UTF-8
Идентификатор кодека : S_TEXT/UTF8
Идентификатор кодека/Информация : UTF-8 Plain Text
Default : Нет
Forced : Нет

Текст #4
Идентификатор : 7
Формат : UTF-8
Идентификатор кодека : S_TEXT/UTF8
Идентификатор кодека/Информация : UTF-8 Plain Text
Default : Нет
Forced : Нет

piratbit.pw



Скачать Люди Икс: Дни минувшего будущего через торрент http://i74.fastpic.ru/big/2015/1221/dd/0a6044acc9e778fb0b8caed68786bfdd.png Скачать фильм Люди Икс: Дни минувшего будущего через торрент бесплантно в хорошем качестве Описание: В недалёком будущем мутанты близки к истреблению роботами-охотниками на мутантов Стражами. Единственная надежда для мутантов ... 9.5 10 26
Info! Золотая раздача, скачанное не засчитывается.
Торрент: Зарегистрирован [2015-12-21 12:06] · скачан: 534 раз
Статус: √ проверено
Размер: 3.46 GB
Как cкачать? Как скачать Люди Икс: Дни минувшего будущего через торрент | qTorrent

28-11-2019 20:33  

Отключить всю рекламу на сайте

    Дорогой пользователь! Огромная просьба, поблагодарите релизера, оцените раздачу и оставьте свои комментарий, если Вы скачали Люди Икс: Дни минувшего будущего через торрент бесплатно! Внесите свою лепту в развитие PiratBit!
    Комментировать посты могут только пользователи прошедшие не сложную регистрацию
    Показать сообщения:    

    Люди Икс: Дни минувшего будущего через торрент
    Скачать бесплатно Люди Икс: Дни минувшего будущего
    Люди Икс: Дни минувшего будущего скачать торрент
    Люди Икс: Дни минувшего будущего смотреть онлайн
    Cкачать фильм Люди Икс: Дни минувшего будущего бесплатно
    Люди Икс: Дни минувшего будущего скачать торрент в хорошем качестве
    Люди Икс: Дни минувшего будущего смотреть онлайн бесплатно в хорошем качестве


    Вы не можете начинать темы
    Вы не можете отвечать на сообщения
    Вы не можете редактировать свои сообщения
    Вы не можете удалять свои сообщения
    Вы не можете голосовать в опросах
    Вы не можете прикреплять файлы к сообщениям
    Вы можете скачивать файлы