1 сезон

1 сезон

iTunes

1

КиноПоиск HD

Кинопоиск HD

iTunes

13

1 сезон

RePack

30

Ultimate

ВАЖНО

ИГРА 18+

pack

RePack

MK11
pack

Легкие деньги

RePack

jed

RePack

fifa19

RePack

RDR2

RePack

NEED FOR SPEED™ PAYBACK

4 сезон

9 сезон

Бесстыжие 9 сезон

Все сериалы

все сериалы на PB.wtf

RePack

FAR CRY 5
  
Magnet ссылка

Обитель проклятых / Eliza Graves / Stonehearst Asylum (Брэд Андерсон) [2014 г., триллер, HDRip, Авторский одноголосый "Ю. Немахов"] piratbit.pw

Обитель проклятых через торрент piratbit.pw

Размер: 2.06 GB | Добавлен: 5 лет 4 мес. назад | Торрент скачан:24 раза
Скачать  

20-12-2015 18:12 Обитель проклятых Скачать торрент  

Обитель проклятых / Eliza Graves / Stonehearst Asylum
Год выпуска: 2014
Страна: США / Icon Productions, Sobini Films
Жанр: триллер
Продолжительность: 01:52:41
Перевод: Авторский одноголосый (Ю.Немахов)

Режиссер: Брэд Андерсон

IMDB 6.80 (28 823)


В ролях: Кейт Бекинсейл, Джим Стёрджесс, Бен Кингсли, Дэвид Тьюлис, Майкл Кейн, Брендан Глисон, Джейсон Флеминг, Софи Кеннеди Кларк, Шинед Кьюсак, Эдмунд Кингсли

Описание: Молодой и крайне симпатичный доктор Эдвард, выпускник Оксфорда, прибывает на работу в психиатрическую клинику, где его никто не ждёт. Его внимание сразу привлекает красивая леди миссис Грэйвз, оказавшаяся здесь за покушение на убийство истязавшего её мужа. Директор лечебницы применяет странные на взгляд официальной медицины методы лечения и даже водит дружбу с некоторыми пациентами. Но вскоре Эдварду предстоит понять, что это — далеко не самое необычное, что таится в стенах больницы.

Качество: HDRip
Формат: AVI
Видео кодек: XviD
Аудио кодек: AC3
Видео: 720x304 (2.37:1), 23.976 fps, XviD build 50 ~2157 kbps avg, 0.41 bit/pixel
Аудио: 48 kHz, AC3 Dolby Digital, 3/2 (L,C,R,l,r) + LFE ch, ~448 kbps

Общее
Полное имя : F:\кино\Обитель проклятых.2014.A.HDRip.avi
Формат : AVI
Формат/Информация : Audio Video Interleave
Профиль формата : OpenDML
Размер файла : 2,06 Гбайт
Продолжительность : 1 ч. 52 м.
Общий поток : 2613 Кбит/сек
Программа кодирования : VirtualDubMod 1.5.10.3 | www.virtualdub-fr.org || (build 2550/release)
Библиотека кодирования : VirtualDubMod build 2550/release

Видео
Идентификатор : 0
Формат : MPEG-4 Visual
Профиль формата : Advanced Simple@L5
Параметр BVOP формата : 2
Параметр QPel формата : Нет
Параметр GMC формата : Без точки перехода
Параметр матрицы формата : Default (H.263)
Идентификатор кодека : XVID
Идентификатор кодека/Подсказка : XviD
Продолжительность : 1 ч. 52 м.
Битрейт : 2152 Кбит/сек
Ширина : 720 пикселей
Высота : 304 пикселя
Соотношение сторон : 2,35:1
Частота кадров : 23,976 (23976/1000) кадра/сек
Цветовое пространство : YUV
Субдискретизация насыщенности : 4:2:0
Битовая глубина : 8 бит
Тип развёртки : Прогрессивная
Метод сжатия : С потерями
Бит/(Пиксели*Кадры) : 0.410
Размер потока : 1,69 Гбайт (82%)
Библиотека кодирования : XviD 1.2.1 (UTC 2008-12-04)

Аудио
Идентификатор : 1
Формат : AC-3
Формат/Информация : Audio Coding 3
Расширение режима : CM (complete main)
Параметр Endianness формата : Big
Идентификатор кодека : 2000
Продолжительность : 1 ч. 52 м.
Вид битрейта : Постоянный
Битрейт : 448 Кбит/сек
Каналы : 6 каналов
Расположение каналов : Front: L C R, Side: L R, LFE
Частота : 48,0 КГц
Частота кадров : 31,250 кадров/сек (1536 spf)
Метод сжатия : С потерями
Размер потока : 361 Мбайт (17%)
Выравнивание : Разделение по промежуткам
Продолжительность промежутка : 42 мс. (1,00 видеокадр)
Время предзагрузки промежутка : 500 мс.

piratbit.pw



Скачать Обитель проклятых через торрент https://pic.kartinco.top/images/11/fss2r.jpg Скачать фильм Обитель проклятых через торрент бесплантно в хорошем качестве Описание: Молодой и крайне симпатичный доктор Эдвард, выпускник Оксфорда, прибывает на работу в психиатрическую клинику, где его никто не ... 10 10 3
Торрент: Зарегистрирован [2015-12-20 18:12] · скачан: 24 раз
Статус: √ проверено
Размер: 2.06 GB
Как cкачать? Как скачать Обитель проклятых через торрент | UTorrent

28-11-2019 20:33  

Отключить всю рекламу на сайте

20-12-2015 18:36 Обитель проклятых Скачать торрент  

Отличный триллер.piratbit.pw



20-12-2015 18:48 Обитель проклятых Скачать торрент  

Посмотрел ожидал намного меньше.хорошее кинцо...piratbit.pw



    Дорогой пользователь! Огромная просьба, поблагодарите релизера, оцените раздачу и оставьте свои комментарий, если Вы скачали Обитель проклятых через торрент бесплатно! Внесите свою лепту в развитие PiratBit!
    Комментировать посты могут только пользователи прошедшие не сложную регистрацию
    Показать сообщения:    

    Обитель проклятых через торрент
    Скачать бесплатно Обитель проклятых
    Обитель проклятых скачать торрент
    Обитель проклятых смотреть онлайн
    Cкачать фильм Обитель проклятых бесплатно
    Обитель проклятых скачать торрент в хорошем качестве
    Обитель проклятых смотреть онлайн бесплатно в хорошем качестве


    Вы не можете начинать темы
    Вы не можете отвечать на сообщения
    Вы не можете редактировать свои сообщения
    Вы не можете удалять свои сообщения
    Вы не можете голосовать в опросах
    Вы не можете прикреплять файлы к сообщениям
    Вы можете скачивать файлы