Ссылка на приватное зеркало всего за 1$. Внимание количество ограничено!!!

iTunes

1+1

iTunes

мы

MV0

1

WEB-DLRip

Джокер

Пифагор

Ведьмак / The Witcher сериал

iTunes

ПШазам

iTunes

Оно 2

iTunes

30
pack

Вам бонус

ВАЖНО

!!Акция!!

Alien_RageХит недели

RePack

Resident Evil 21

ИГРА 18+

pack

RePack

jed

!!Акция!!

Alien_Rage

RePack

fifa19

RePack

Assassins Creed: Odyssey

RePack

NEED FOR SPEED™ PAYBACK

4 сезон

9 сезон

Бесстыжие 9 сезон

Все сериалы

все сериалы на PB.wtf

RePack

FAR CRY 5
  

Эверест / Everest (Бальтасар Кормакур) [2015 г., триллер, драма, приключения, биография, история, HDRip, Дубляж Лицензия] от R.G. Resident piratbit.pw

Эверест через торрент piratbit.pw

Размер: 2.18 GB | Добавлен: 4 года 2 мес. назад | Торрент скачан:89 раз
Скачать  

19-12-2015 16:36 Эверест Скачать торрент  

Эверест / EverestГод выпуска: 2015
Страна: США, Великобритания, Исландия
Жанр: триллер, драма, приключения, биография, история
Продолжительность: 02:01:10
Перевод: Дубляж, Лицензия | Blu-ray EUR
Субтитры: Нет

Режиссер: Бальтасар Кормакур
Продюссер: Ники Кентиш Барнс, Тим Беван, Лиза Чейсин
Сценарий: Уильям Николсон, Саймон Бофой

Бюджет: $55 000 000
Премьера в мире: 2 сентября 2015



В ролях: Джейсон Кларк, Джош Бролин, Джейк Джилленхол, Сэм Уортингтон, Джон Хоукс, Майкл Келли, Ингвар Эггерт Сигюрдссон, Кира Найтли, Эмили Уотсон, Робин Райт, Алексей Мясников, Владимир Антоник, Михаил Тихонов, Кирилл Туранский, Вадим Медведев

Описание: Эверест — великая неприступная гора, покорить вершину которой мечтают многие профессиональные альпинисты. Одна из экспедиций на ее вершину закончилась настоящей трагедией, однако этот факт не останавливает отважных альпинистов.Опытный инструктор Роб Холл, собрав группу из лучших альпинистов, собирается совершить восхождение на самую высокую вершину планеты. Все эти люди полны мужества и отваги и они не остановятся ни перед чем, пока не поднимутся на вершину Эвереста. Но даже если эта гора покорится им, смогут ли они вернуться обратно живыми и невредимыми?..

Качество: HDRip | BDRip 720p
Формат: AVI
Видео кодек: XviD
Аудио кодек: AC3
Видео: 720x304 (2.37:1), 23.976 fps, XviD build 73 ~2179 kbps avg, 0.41 bit/pixel
Аудио: 48 kHz, AC3 Dolby Digital, 3/2 (L,C,R,l,r) + LFE ch, ~384 kbps



Автор рипа: Dean24
| | R.G. Resident
Общее
Полное имя : D:\Мои документы\Фильмы\Сайт\Everest.HDRip.avi
Формат : AVI
Формат/Информация : Audio Video Interleave
Профиль формата : OpenDML
Размер файла : 2,18 Гбайт
Продолжительность : 2 ч. 1 м.
Общий поток : 2570 Кбит/сек
Программа кодирования : VirtualDubMod 1.5.10.3 | www.virtualdub-fr.org || (build 2550/release)
Библиотека кодирования : VirtualDubMod build 2550/release

Видео
Идентификатор : 0
Формат : MPEG-4 Visual
Профиль формата : Advanced Simple@L5
Параметр BVOP формата : 3
Параметр QPel формата : Нет
Параметр GMC формата : Без точки перехода
Параметр матрицы формата : Default (H.263)
Идентификатор кодека : XVID
Идентификатор кодека/Подсказка : XviD
Продолжительность : 2 ч. 1 м.
Битрейт : 2175 Кбит/сек
Ширина : 720 пикселей
Высота : 304 пикселя
Соотношение сторон : 2,35:1
Частота кадров : 23,976 кадра/сек
Цветовое пространство : YUV
Субдискретизация насыщенности : 4:2:0
Битовая глубина : 8 бит
Тип развёртки : Прогрессивная
Метод сжатия : С потерями
Бит/(Пиксели*Кадры) : 0.414
Размер потока : 1,84 Гбайт (85%)
Библиотека кодирования : XviD 73

Аудио
Идентификатор : 1
Формат : AC-3
Формат/Информация : Audio Coding 3
Расширение режима : CM (complete main)
Параметр Endianness формата : Big
Идентификатор кодека : 2000
Продолжительность : 2 ч. 1 м.
Вид битрейта : Постоянный
Битрейт : 384 Кбит/сек
Каналы : 6 каналов
Расположение каналов : Front: L C R, Side: L R, LFE
Частота : 48,0 КГц
Битовая глубина : 16 бит
Метод сжатия : С потерями
Размер потока : 333 Мбайт (15%)
Выравнивание : Разделение по промежуткам
Продолжительность промежутка : 42 мс. (1,00 видеокадр)
Время предзагрузки промежутка : 500 мс.

piratbit.pw



Скачать Эверест через торрент http://i66.fastpic.ru/big/2015/1219/03/3a60cbe0764bc17965b5a6f9821f7703.png Скачать фильм Эверест через торрент бесплантно в хорошем качестве Описание: Эверест — великая неприступная гора, покорить вершину которой мечтают многие профессиональные альпинисты. Одна из экспедиций на ... 10 10 4
Info! Золотая раздача, скачанное не засчитывается.
Торрент: Зарегистрирован [2015-12-19 16:36] · скачан: 89 раз
Статус: √ проверено
Размер: 2.18 GB
Как cкачать? Как скачать Эверест через торрент | qTorrent

28-11-2019 20:33  

Отключить всю рекламу на сайте

    Дорогой пользователь! Огромная просьба, поблагодарите релизера, оцените раздачу и оставьте свои комментарий, если Вы скачали Эверест через торрент бесплатно! Внесите свою лепту в развитие PiratBit!
    Комментировать посты могут только пользователи прошедшие не сложную регистрацию
    Показать сообщения:    

    Эверест через торрент
    Скачать бесплатно Эверест
    Эверест скачать торрент
    Эверест смотреть онлайн
    Cкачать фильм Эверест бесплатно
    Эверест скачать торрент в хорошем качестве
    Эверест смотреть онлайн бесплатно в хорошем качестве


    Вы не можете начинать темы
    Вы не можете отвечать на сообщения
    Вы не можете редактировать свои сообщения
    Вы не можете удалять свои сообщения
    Вы не можете голосовать в опросах
    Вы не можете прикреплять файлы к сообщениям
    Вы можете скачивать файлы