Ссылка на приватное зеркало нашего сайта всего за 1$. Внимание количество ограничено!!!

2 сезон

iTunes

iTunes

1

iTunes

iTunes

iTunes

WEBRip

iTunes

30
pack

Вам бонус

ВАЖНО

!!Акция!!

Alien_RageХит недели

RePack

Horizon Zero Dawn

ИГРА 18+

pack

RePack

jed

!!Акция!!

Alien_Rage

RePack

fifa19

RePack

Assassins Creed: Odyssey

RePack

NEED FOR SPEED™ PAYBACK

4 сезон

9 сезон

Бесстыжие 9 сезон

Все сериалы

все сериалы на PB.wtf

RePack

FAR CRY 5
  

Переводчик (Алексей Нужный) [2015, криминал, драма, WEB-DL 1080p, Оригинал [iTunes] piratbit.pw

Переводчик через торрент piratbit.pw

Размер: 2.35 GB | Добавлен: 4 года 9 мес. назад | Торрент скачан:295 раз
Скачать  

18-12-2015 21:18 Переводчик Скачать торрент  

Переводчик


Год выпуска: 2015
Страна: Россия
Жанр: криминал, драма
Продолжительность: 01:09:15
Перевод: Оригинал [iTunes]
Режиссер: Алексей Нужный
В ролях:

Леонид Ярмольник, Александр Ильин мл., Мария Андреева, Дмитрий Астрахан, Семен Трескунов, Луиза-Габриэла Бровина, Клара Лаго, Михаил Шамигулов (похититель), Станислав Дужников, Елена Плаксина, Сергей Гутько, Павел Абраменков
Описание:
Воскресный папа отправляется в командировку вместе со своим двенадцатилетним сыном. Оказавшись свидетелем криминальной разборки, которую затеял главарь местной банды, сын попадает в больницу. Спасти жизнь мальчику может операция за границей. Но она стоит больших денег. Отец решается на отчаянный шаг - он соглашается исполнить три желания главаря банды.

Качество: WEB-DL 1080p
Формат: MKV
Видео: AVC, 1918x804 (2.40:1), 4374 kbps, 24 fps, 0,118 bpp
Аудио: русский / AC3 / 5.1 / 48 kHz / 384 kbps / 16 bit ||

Код:

General
Unique ID                                : 179708715484682034668479097582588226777 (0x8732A3BF92D90E1DBA20CB152B1B6CD9)
Complete name                            : C:\Games\pePeB0d41K.2O15.O.WEB-DL.1080p.mkv
Format                                   : Matroska
Format version                           : Version 2
File size                                : 2.35 GiB
Duration                                 : 1h 9mn
Overall bit rate                         : 4 856 Kbps
Encoded date                             : UTC 2015-12-17 07:00:17
Writing application                      : mkvmerge v8.3.0 ('Over the Horizon') 64bit
Writing library                          : libebml v1.3.1 + libmatroska v1.4.2
DURATION                                 : 01:09:15.552000000
NUMBER_OF_FRAMES                         : 129861
NUMBER_OF_BYTES                          : 199466496
_STATISTICS_WRITING_APP                  : mkvmerge v8.3.0 ('Over the Horizon') 64bit
_STATISTICS_WRITING_DATE_UTC             : 2015-12-17 07:00:17
_STATISTICS_TAGS                         : BPS DURATION NUMBER_OF_FRAMES NUMBER_OF_BYTES

Video
ID                                       : 1
Format                                   : AVC
Format/Info                              : Advanced Video Codec
Format profile                           : High@L4.0
Format settings, CABAC                   : Yes
Format settings, ReFrames                : 5 frames
Codec ID                                 : V_MPEG4/ISO/AVC
Duration                                 : 1h 9mn
Bit rate                                 : 4 375 Kbps
Width                                    : 1 918 pixels
Height                                   : 804 pixels
Display aspect ratio                     : 2.40:1
Frame rate                               : 24.000 fps
Color space                              : YUV
Chroma subsampling                       : 4:2:0
Bit depth                                : 8 bits
Scan type                                : Progressive
Bits/(Pixel*Frame)                       : 0.118
Stream size                              : 2.12 GiB (90%)
Language                                 : English
Default                                  : Yes
Forced                                   : No
Color primaries                          : BT.709-5, BT.1361, IEC 61966-2-4, SMPTE RP177
Transfer characteristics                 : BT.709-5, BT.1361
Matrix coefficients                      : BT.709-5, BT.1361, IEC 61966-2-4 709, SMPTE RP177

Audio
ID                                       : 2
Format                                   : AC-3
Format/Info                              : Audio Coding 3
Mode extension                           : CM (complete main)
Codec ID                                 : A_AC3
Duration                                 : 1h 9mn
Bit rate mode                            : Constant
Bit rate                                 : 384 Kbps
Channel(s)                               : 6 channels
Channel positions                        : Front: L C R, Side: L R, LFE
Sampling rate                            : 48.0 KHz
Bit depth                                : 16 bits
Compression mode                         : Lossy
Stream size                              : 190 MiB (8%)
Language                                 : Russian
Default                                  : Yes
Forced                                   : No

Menu
00:00:00.000                             : en:Глава 1
00:06:42.000                             : en:Глава 2
00:12:24.000                             : en:Глава 3
00:19:10.000                             : en:Глава 4
00:24:54.000                             : en:Глава 5
00:30:46.000                             : en:Глава 6
00:35:45.000                             : en:Глава 7
00:41:25.000                             : en:Глава 8
00:46:57.000                             : en:Глава 9
00:52:49.000                             : en:Глава 10
00:57:53.000                             : en:Глава 11
01:03:23.000                             : en:Глава 12


© Оформление by White Smoke piratbit.pw



Скачать Переводчик через торрент http://i5.imageban.ru/out/2015/12/19/de59f520aac9bd704fa7ea9428a8ae5c.jpg Скачать фильм Переводчик через торрент бесплантно в хорошем качестве Описание: Воскресный папа отправляется в командировку вместе со своим двенадцатилетним сыном. Оказавшись свидетелем криминальной разборки, ... 8.6 10 12
Торрент: Зарегистрирован [2015-12-18 21:18] · скачан: 295 раз
Статус: √ проверено
Размер: 2.35 GB
Как cкачать? Как скачать Переводчик через торрент | qTorrent

% Раздел Тема Автор DL S | L
Фильмы [HD 720p, 1080p] (Хороший звук DUB, MVO) [ 4.24 GB ] Переводчики / Les traducteurs [2019 BDRip 720p] bober100 Скачать
27 | 0
Фильмы [HD 720p, 1080p] (Хороший звук DUB, MVO) [ 8.27 GB ] Переводчики / Les traducteurs [2019 BDRip 1080p] bober100 Скачать
24 | 0
Фильмы 2019-2020 [DVDrip, WEB-DLRip, HDrip] (DUB, MVO) [ 1.41 GB ] Переводчики / Les traducteurs [2019 BDRip] - Twi7ter Скачать
199 | 5
Фильмы (Blu-ray, BD-Remux, HDDVD) [ 24.82 GB ] Переводчики / Les traducteurs [2019 BD Remux 1080p] bober100 Скачать
5 | 0
Фильмы 2019-2020 [DVDrip, WEB-DLRip, HDrip] (DUB, MVO) [ 746 MB ] Переводчики / Les traducteurs [2019 HDRip] bober100 Скачать
3 | 0
Фильмы 2019-2020 [DVDrip, WEB-DLRip, HDrip] (DUB, MVO) [ 1.4 GB ] Переводчики / Les traducteurs [2019 WEB-DLRip-AVC] killermax2013 Скачать
8 | 0
Фильмы (WEB-DL 720p, 1080p) [ 3.64 GB ] Переводчики / Les traducteurs [2019 WEB-DL 1080p] bober100 Скачать
13 | 0

28-11-2019 20:33  

Отключить всю рекламу на сайте

    Дорогой пользователь! Огромная просьба, поблагодарите релизера, оцените раздачу и оставьте свои комментарий, если Вы скачали Переводчик через торрент бесплатно! Внесите свою лепту в развитие PiratBit!
    Комментировать посты могут только пользователи прошедшие не сложную регистрацию
    Показать сообщения:    

    Переводчик через торрент
    Скачать бесплатно Переводчик
    Переводчик скачать торрент
    Переводчик смотреть онлайн
    Cкачать фильм Переводчик бесплатно
    Переводчик скачать торрент в хорошем качестве
    Переводчик смотреть онлайн бесплатно в хорошем качестве


    Вы не можете начинать темы
    Вы не можете отвечать на сообщения
    Вы не можете редактировать свои сообщения
    Вы не можете удалять свои сообщения
    Вы не можете голосовать в опросах
    Вы не можете прикреплять файлы к сообщениям
    Вы можете скачивать файлы