Ссылка на приватное зеркало всего за 1$. Внимание количество ограничено!!!

iTunes

1+1

iTunes

мы

MV0

1

WEB-DLRip

Джокер

Пифагор

Ведьмак / The Witcher сериал

iTunes

ПШазам

iTunes

Оно 2

iTunes

30
pack

Вам бонус

ВАЖНО

!!Акция!!

Alien_RageХит недели

RePack

Resident Evil 21

ИГРА 18+

pack

RePack

jed

!!Акция!!

Alien_Rage

RePack

fifa19

RePack

Assassins Creed: Odyssey

RePack

NEED FOR SPEED™ PAYBACK

4 сезон

9 сезон

Бесстыжие 9 сезон

Все сериалы

все сериалы на PB.wtf

RePack

FAR CRY 5
  

Зильс-Мария / Clouds of Sils Maria (Оливье Ассайас) [2014, драма, HDRip-AVC, MVO [НТВ+] R.G.Resident piratbit.pw

Зильс-Мария через торрент piratbit.pw

Размер: 2.18 GB | Добавлен: 4 года 2 мес. назад | Торрент скачан:97 раз
Скачать  

18-12-2015 14:31 Зильс-Мария Скачать торрент  

Зильс-Мария / Clouds of Sils Maria
Год выпуска: 2014
Страна: Франция, Германия, Швейцария
Жанр: драма
Продолжительность: 02:03:31
Перевод: Профессиональный многоголосый [НТВ+]
Режиссер: Оливье Ассайас
В ролях:

Жюльет Бинош (Maria Enders), Кристен Стюарт (Valentine), Хлоя Грейс Морец (Jo-Ann Ellis), Ларс Эйдингер (Klaus Diesterweg), Джонни Флинн (Christopher Giles), Ангела Винклер (Rosa Melchior), Ханнс Цишлер (Henryk Wald), Нора фон Вальдштеттен (Actress in Sci-fi Movie), Брэйди Корбет (Piers Roaldson), Алёша Штадельман (Urs Kobler), Клер Тран (Maria's London Assistant), Питер Фаркас (Journalist in Zürich)
Описание:
В восемнадцать лет Мария Эндерс с успехом дебютировала в пьесе MalojaSnake. Она исполнила роль Сигрид, амбициозной девушки с непреодолимым обаянием, которая сначала очаровала, а потом довела до самоубийства взрослую женщину по имени Элена. Эта роль изменила ее жизнь. Более двадцати лет спустя, на пике славы, Марию приглашают в Цюрих на церемонию вручения престижной награды от имени автора и режиссера, которому она обязана своим ранним признанием, Вильгельма Мельхиора, живущего ныне отшельником в швейцарской деревне Зильс Мария. Но неожиданная смерть последнего за несколько часов до церемонии погружает Марию Эндерс в круговорот времени, прошлое, которое никогда не спит, возвращается...
Мировая премьера: 23 мая 2014

MPAA: R - Лицам до 17 лет обязательно присутствие взрослого
Качество: HDRip-AVC Rip by schultz R.G.Resident
Формат: MKV
Видео: AVC, 1024x432 (2.35:1), 2142 kbps, 24 fps, 0,202 bpp
Аудио: AC3 / 5.1 / 48 kHz / 384 kbps / 16 bit

Код:

General
Unique ID                                : 192698112537627881926632526183966289085 (0x90F84E77DA5F4B24B999988525C9ACBD)
Complete name                            : D:\download\z1LS.maR1a.2O14.P.HDRip-AVC by schultz R.G.Resident.mkv
Format                                   : Matroska
Format version                           : Version 2
File size                                : 2.18 GiB
Duration                                 : 2h 3mn
Overall bit rate                         : 2 527 Kbps
Encoded date                             : UTC 2015-12-18 08:56:00
Writing application                      : mkvmerge v6.1.0 ('Old Devil') built on Mar  4 2013 09:10:42
Writing library                          : libebml v1.3.0 + libmatroska v1.4.0

Video
ID                                       : 1
Format                                   : AVC
Format/Info                              : Advanced Video Codec
Format profile                           : High@L4.1
Format settings, CABAC                   : Yes
Format settings, ReFrames                : 12 frames
Codec ID                                 : V_MPEG4/ISO/AVC
Duration                                 : 2h 3mn
Bit rate                                 : 2 142 Kbps
Width                                    : 1 024 pixels
Height                                   : 432 pixels
Display aspect ratio                     : 2.35:1
Frame rate                               : 24.000 fps
Color space                              : YUV
Chroma subsampling                       : 4:2:0
Bit depth                                : 8 bits
Scan type                                : Progressive
Bits/(Pixel*Frame)                       : 0.202
Stream size                              : 1.81 GiB (83%)
Writing library                          : x264 core 130 r2273 b3065e6
Encoding settings                        : cabac=1 / ref=12 / deblock=1:-2:-2 / analyse=0x3:0x113 / me=umh / subme=11 / psy=1 / psy_rd=1.00:0.15 / mixed_ref=1 / me_range=32 / chroma_me=1 / trellis=2 / 8x8dct=1 / cqm=0 / deadzone=21,11 / fast_pskip=1 / chroma_qp_offset=-3 / threads=12 / lookahead_threads=2 / sliced_threads=0 / nr=0 / decimate=0 / interlaced=0 / bluray_compat=0 / constrained_intra=0 / bframes=9 / b_pyramid=2 / b_adapt=2 / b_bias=0 / direct=3 / weightb=1 / open_gop=0 / weightp=2 / keyint=240 / keyint_min=23 / scenecut=40 / intra_refresh=0 / rc_lookahead=40 / rc=2pass / mbtree=1 / bitrate=2142 / ratetol=1.0 / qcomp=0.60 / qpmin=0 / qpmax=69 / qpstep=4 / cplxblur=20.0 / qblur=0.5 / vbv_maxrate=17500 / vbv_bufsize=14000 / nal_hrd=none / ip_ratio=1.40 / aq=1:0.80
Default                                  : Yes
Forced                                   : No

Audio
ID                                       : 2
Format                                   : AC-3
Format/Info                              : Audio Coding 3
Mode extension                           : CM (complete main)
Codec ID                                 : A_AC3
Duration                                 : 2h 3mn
Bit rate mode                            : Constant
Bit rate                                 : 384 Kbps
Channel(s)                               : 6 channels
Channel positions                        : Front: L C R, Side: L R, LFE
Sampling rate                            : 48.0 KHz
Bit depth                                : 16 bits
Compression mode                         : Lossy
Stream size                              : 339 MiB (15%)
Default                                  : Yes
Forced                                   : No


piratbit.pw



Скачать Зильс-Мария через торрент http://i67.fastpic.ru/big/2015/1218/7e/ac1f550d96046222078a78eb1a671e7e.png Скачать фильм Зильс-Мария через торрент бесплантно в хорошем качестве Описание: В восемнадцать лет Мария Эндерс с успехом дебютировала в пьесе MalojaSnake. Она исполнила роль Сигрид, амбициозной девушки с ... 8.7 10 7
Info! Золотая раздача, скачанное не засчитывается.
Торрент: Зарегистрирован [2015-12-18 14:31] · скачан: 97 раз
Статус: √ проверено
Размер: 2.18 GB
Как cкачать? Как скачать Зильс-Мария через торрент | qTorrent

28-11-2019 20:33  

Отключить всю рекламу на сайте

    Дорогой пользователь! Огромная просьба, поблагодарите релизера, оцените раздачу и оставьте свои комментарий, если Вы скачали Зильс-Мария через торрент бесплатно! Внесите свою лепту в развитие PiratBit!
    Комментировать посты могут только пользователи прошедшие не сложную регистрацию
    Показать сообщения:    

    Зильс-Мария через торрент
    Скачать бесплатно Зильс-Мария
    Зильс-Мария скачать торрент
    Зильс-Мария смотреть онлайн
    Cкачать фильм Зильс-Мария бесплатно
    Зильс-Мария скачать торрент в хорошем качестве
    Зильс-Мария смотреть онлайн бесплатно в хорошем качестве


    Вы не можете начинать темы
    Вы не можете отвечать на сообщения
    Вы не можете редактировать свои сообщения
    Вы не можете удалять свои сообщения
    Вы не можете голосовать в опросах
    Вы не можете прикреплять файлы к сообщениям
    Вы можете скачивать файлы