1 сезон

1 сезон

iTunes

1

КиноПоиск HD

Кинопоиск HD

iTunes

13

1 сезон

RePack

30

Новинка

ВАЖНО

ИГРА 18+

pack

RePack

MK11
pack

Легкие деньги

RePack

jed

RePack

fifa19

RePack

RDR2

RePack

NEED FOR SPEED™ PAYBACK

4 сезон

9 сезон

Бесстыжие 9 сезон

Все сериалы

все сериалы на PB.wtf

RePack

FAR CRY 5
  
Magnet ссылка

Шомпол / Ramrod (Андре Де Тот) [1947, мелодрама, вестерн, BDRip AVC by msltel] AVO piratbit.pw

Шомпол через торрент piratbit.pw

Размер: 1.87 GB | Добавлен: 5 лет 4 мес. назад | Торрент скачан:3 раза
Скачать  

18-12-2015 10:12 Шомпол Скачать торрент  

Название: Шомпол
Оригинальное название: Ramrod
Год выпуска: 1947
Страна: США
Жанр: мелодрама, вестерн
Продолжительность: 01:35:09
Перевод: авторский

Режиссёр: Андре Де Тот

В ролях: Джоэл МакКри, Вероника Лэйк, Дон ДеФор, Дональд Крисп, Престон Фостер, Арлин Виллан, Чарльз Рагглз, Ллойд Бриджес

Описание: В очередной раз герои вестерна делят землю. Прекрасной девушке досталось ранчо от сбежавшего жениха, но у местного авторитета свои планы на этот кусочек земли. Конечно он считает себя главным злодеем в округе, хотя это было до того, как он повстречался с ней. Она только что вырвалась из-под опеки отца, и теперь её не остановить. Она любит мужчин, любит, чтобы из-за неё началась небольшая драка или, лучше, сразу перестрелка. Особенное удовольствие она получает, если есть жертвы. Мужчины мрут пачками. В общем, милая деревенская девушка...



Качество: BDRip AVC Сравнение с исходником
Формат: MKV
Видео: MPEG-4 AVC, 2366 Кбит/с, 770x576, 23,976 кадра/с
Аудио 1: русский, AC3, 192 kbps, 2 ch, 48 kHz [авторский, Антон Алекссев]
Аудио 2: английский, AC3, 192 kbps, 1 ch, 48 kHz [оригинал]
Общее
Уникальный идентификатор : 249754354307626552997854196472516874278 (0xBBE4F0605A20702FB558B18BDC369026)
Полное имя : D:\Video\Шомпол.1947.BDRip.AVC.mkv
Формат : Matroska
Версия формата : Version 4 / Version 2
Размер файла : 1,87 Гбайт
Продолжительность : 1 ч. 35 м.
Общий поток : 2806 Кбит/сек
Дата кодирования : UTC 2015-12-18 03:21:15
Программа кодирования : mkvmerge v8.2.0 ('World of Adventure') 64bit
Библиотека кодирования : libebml v1.3.1 + libmatroska v1.4.2
DURATION : 01:35:09.024000000
NUMBER_OF_FRAMES : 178407
NUMBER_OF_BYTES : 137016576
_STATISTICS_WRITING_APP : mkvmerge v8.2.0 ('World of Adventure') 64bit
_STATISTICS_WRITING_DATE_UTC : 2015-12-18 03:21:15
_STATISTICS_TAGS : BPS DURATION NUMBER_OF_FRAMES NUMBER_OF_BYTES

Видео
Идентификатор : 1
Формат : AVC
Формат/Информация : Advanced Video Codec
Профиль формата : High@L4.1
Параметр CABAC формата : Да
Параметр ReFrames формата : 9 кадров
Идентификатор кодека : V_MPEG4/ISO/AVC
Продолжительность : 1 ч. 35 м.
Битрейт : 2366 Кбит/сек
Ширина : 770 пикселей
Высота : 576 пикселей
Соотношение сторон : 4:3
Режим частоты кадров : Постоянный
Частота кадров : 23,976 кадра/сек
Цветовое пространство : YUV
Субдискретизация насыщенности : 4:2:0
Битовая глубина : 8 бит
Тип развёртки : Прогрессивная
Бит/(Пиксели*Кадры) : 0.223
Размер потока : 1,57 Гбайт (84%)
Заголовок : BDRip by msltel
Библиотека кодирования : x264 core 146 r2538 121396c
Настройки программы : cabac=1 / ref=9 / deblock=1:-3:-3 / analyse=0x3:0x113 / me=umh / subme=10 / psy=1 / psy_rd=1.00:0.15 / mixed_ref=1 / me_range=32 / chroma_me=1 / trellis=2 / 8x8dct=1 / cqm=0 / deadzone=21,11 / fast_pskip=1 / chroma_qp_offset=-3 / threads=6 / lookahead_threads=1 / sliced_threads=0 / nr=0 / decimate=1 / interlaced=0 / bluray_compat=0 / constrained_intra=0 / bframes=13 / b_pyramid=2 / b_adapt=2 / b_bias=0 / direct=1 / weightb=1 / open_gop=0 / weightp=2 / keyint=230 / keyint_min=23 / scenecut=40 / intra_refresh=0 / rc_lookahead=40 / rc=crf / mbtree=0 / crf=21.5 / qcomp=0.60 / qpmin=0 / qpmax=69 / qpstep=4 / vbv_maxrate=40000 / vbv_bufsize=50000 / crf_max=0.0 / nal_hrd=none / filler=0 / ip_ratio=1.40 / pb_ratio=1.30 / aq=1:1.00
Язык : English
Default : Да
Forced : Нет
DURATION : 01:35:08.703000000
NUMBER_OF_FRAMES : 136872
NUMBER_OF_BYTES : 1727195997
_STATISTICS_WRITING_APP : mkvmerge v8.2.0 ('World of Adventure') 64bit
_STATISTICS_WRITING_DATE_UTC : 2015-12-18 03:21:15
_STATISTICS_TAGS : BPS DURATION NUMBER_OF_FRAMES NUMBER_OF_BYTES

Аудио #1
Идентификатор : 2
Формат : AC-3
Формат/Информация : Audio Coding 3
Расширение режима : CM (complete main)
Параметр Endianness формата : Big
Идентификатор кодека : A_AC3
Продолжительность : 1 ч. 35 м.
Вид битрейта : Постоянный
Битрейт : 192 Кбит/сек
Каналы : 2 канала
Расположение каналов : Front: L R
Частота : 48,0 КГц
Метод сжатия : С потерями
Размер потока : 131 Мбайт (7%)
Заголовок : AVO (Антон Алексеев)
Язык : Russian
Default : Да
Forced : Нет

Аудио #2
Идентификатор : 3
Формат : AC-3
Формат/Информация : Audio Coding 3
Расширение режима : CM (complete main)
Параметр Endianness формата : Big
Идентификатор кодека : A_AC3
Продолжительность : 1 ч. 35 м.
Вид битрейта : Постоянный
Битрейт : 192 Кбит/сек
Каналы : 1 канал
Расположение каналов : Front: C
Частота : 48,0 КГц
Метод сжатия : С потерями
Размер потока : 131 Мбайт (7%)
Заголовок : Original
Язык : English
Default : Нет
Forced : Нет
piratbit.pw



Скачать Шомпол через торрент http://s017.radikal.ru/i430/1512/ba/40c726d2d33c.png Скачать фильм Шомпол через торрент бесплантно в хорошем качестве Описание: В очередной раз герои вестерна делят землю. Прекрасной девушке досталось ранчо от сбежавшего жениха, но у местного авторитета ... 5 10 1
Info! Серебряная раздача, засчитывается только 50% скачанного.
Торрент: Зарегистрирован [2015-12-18 10:12] · скачан: 3 раз
Статус: √ проверено
Размер: 1.87 GB
Как cкачать? Как скачать Шомпол через торрент | UTorrent

28-11-2019 20:33  

Отключить всю рекламу на сайте

    Дорогой пользователь! Огромная просьба, поблагодарите релизера, оцените раздачу и оставьте свои комментарий, если Вы скачали Шомпол через торрент бесплатно! Внесите свою лепту в развитие PiratBit!
    Комментировать посты могут только пользователи прошедшие не сложную регистрацию
    Показать сообщения:    

    Шомпол через торрент
    Скачать бесплатно Шомпол
    Шомпол скачать торрент
    Шомпол смотреть онлайн
    Cкачать фильм Шомпол бесплатно
    Шомпол скачать торрент в хорошем качестве
    Шомпол смотреть онлайн бесплатно в хорошем качестве


    Вы не можете начинать темы
    Вы не можете отвечать на сообщения
    Вы не можете редактировать свои сообщения
    Вы не можете удалять свои сообщения
    Вы не можете голосовать в опросах
    Вы не можете прикреплять файлы к сообщениям
    Вы можете скачивать файлы