Ссылка на приватное зеркало всего за 1$. Внимание количество ограничено!!!

iTunes

1+1

iTunes

мы

MV0

1

WEB-DLRip

Джокер

Пифагор

Ведьмак / The Witcher сериал

iTunes

ПШазам

iTunes

Оно 2

iTunes

30
pack

Вам бонус

ВАЖНО

!!Акция!!

Alien_RageХит недели

RePack

Resident Evil 21

ИГРА 18+

pack

RePack

jed

!!Акция!!

Alien_Rage

RePack

fifa19

RePack

Assassins Creed: Odyssey

RePack

NEED FOR SPEED™ PAYBACK

4 сезон

9 сезон

Бесстыжие 9 сезон

Все сериалы

все сериалы на PB.wtf

RePack

FAR CRY 5
  

Шаг вперед / Step Up (Энн Флетчер) [2006 г., драма, мелодрама, криминал, музыка, HDRip, Дубляж Лицензия] от R.G. Resident piratbit.pw

Шаг вперед через торрент piratbit.pw

Размер: 1.46 GB | Добавлен: 4 года 2 мес. назад | Торрент скачан:0 раз
Скачать  

18-12-2015 08:21 Шаг вперед Скачать торрент  

Шаг вперед / Step UpГод выпуска: 2006
Страна: США
Жанр: драма, мелодрама, криминал, музыка
Продолжительность: 01:43:30
Перевод: Дубляж | Лицензия
Субтитры: Нет

Режиссер: Энн Флетчер
Продюссер: Эрик Фейг, Дженнифер Джибгот, Адам Шенкман
Сценарий: Дуан Адлер, Мелисса Розенберг

Бюджет: $12 000 000
Премьера в мире: 7 августа 2006



В ролях: Ченнинг Татум, Дженна Дуан-Татум, Дэмейн Рэдклифф, Ди’Шон Вашингтон, Марио, Дрю Сидора, Рэйчел Гриффитс, Джош Хендерсон, Тим Лакатена, Элисон Стоунер, Илья Хвостиков, Жанна Никонова, Элиза Мартиросова, Александр Комлев, Ольга Зубкова

Описание: Тайлер Гейдж — уличный танцор. Безумный и рискованный стиль жизни заставляет его конфликтовать с обществом. После очередного инцидента, Тайлер попадает в школу, в которой будет вынужден отрабатывать наказание в виде исправительных работ. Там он знакомится с девушкой, которая открывает ему глаза на его талант и окружающий его мир...

Качество: HDRip | BDRip 720p
Формат: AVI
Видео кодек: XviD
Аудио кодек: AC3
Видео: 720x304 (2.37:1), 23.976 fps, XviD build 73 ~1624 kbps avg, 0.31 bit/pixel
Аудио#1: 48 kHz, AC3 Dolby Digital, 3/2 (L,C,R,l,r) + LFE ch, ~384 kbps



Автор рипа: Dean24
| | R.G. Resident
Общее
Полное имя : D:\Мои документы\Фильмы\Сайт\Step.Up.HDRip.avi
Формат : AVI
Формат/Информация : Audio Video Interleave
Размер файла : 1,46 Гбайт
Продолжительность : 1 ч. 43 м.
Общий поток : 2018 Кбит/сек
Программа кодирования : VirtualDubMod 1.5.10.3 | www.virtualdub-fr.org || (build 2550/release)
Библиотека кодирования : VirtualDubMod build 2550/release

Видео
Идентификатор : 0
Формат : MPEG-4 Visual
Профиль формата : Advanced Simple@L5
Параметр BVOP формата : 3
Параметр QPel формата : Нет
Параметр GMC формата : Без точки перехода
Параметр матрицы формата : Default (H.263)
Идентификатор кодека : XVID
Идентификатор кодека/Подсказка : XviD
Продолжительность : 1 ч. 43 м.
Битрейт : 1625 Кбит/сек
Ширина : 720 пикселей
Высота : 304 пикселя
Соотношение сторон : 2,35:1
Частота кадров : 23,976 кадра/сек
Цветовое пространство : YUV
Субдискретизация насыщенности : 4:2:0
Битовая глубина : 8 бит
Тип развёртки : Прогрессивная
Метод сжатия : С потерями
Бит/(Пиксели*Кадры) : 0.310
Размер потока : 1,17 Гбайт (81%)
Библиотека кодирования : XviD 73

Аудио
Идентификатор : 1
Формат : AC-3
Формат/Информация : Audio Coding 3
Расширение режима : CM (complete main)
Параметр Endianness формата : Big
Идентификатор кодека : 2000
Продолжительность : 1 ч. 43 м.
Вид битрейта : Постоянный
Битрейт : 384 Кбит/сек
Каналы : 6 каналов
Расположение каналов : Front: L C R, Side: L R, LFE
Частота : 48,0 КГц
Битовая глубина : 16 бит
Метод сжатия : С потерями
Размер потока : 284 Мбайт (19%)
Выравнивание : Разделение по промежуткам
Продолжительность промежутка : 42 мс. (1,00 видеокадр)
Время предзагрузки промежутка : 500 мс.

piratbit.pw



Скачать Шаг вперед через торрент http://i76.fastpic.ru/big/2015/1218/f5/d1626ad2f4ad784f0631ccd31fef22f5.png Скачать фильм Шаг вперед через торрент бесплантно в хорошем качестве Описание: Тайлер Гейдж — уличный танцор. Безумный и рискованный стиль жизни заставляет его конфликтовать с обществом. После очередного ... 10 10 5
Info! Золотая раздача, скачанное не засчитывается.
Торрент: Зарегистрирован [2015-12-18 08:21] · скачан: 0 раз
Статус: √ проверено
Размер: 1.46 GB
Как cкачать? Как скачать Шаг вперед через торрент | qTorrent

28-11-2019 20:33  

Отключить всю рекламу на сайте

    Дорогой пользователь! Огромная просьба, поблагодарите релизера, оцените раздачу и оставьте свои комментарий, если Вы скачали Шаг вперед через торрент бесплатно! Внесите свою лепту в развитие PiratBit!
    Комментировать посты могут только пользователи прошедшие не сложную регистрацию
    Показать сообщения:    

    Шаг вперед через торрент
    Скачать бесплатно Шаг вперед
    Шаг вперед скачать торрент
    Шаг вперед смотреть онлайн
    Cкачать фильм Шаг вперед бесплатно
    Шаг вперед скачать торрент в хорошем качестве
    Шаг вперед смотреть онлайн бесплатно в хорошем качестве


    Вы не можете начинать темы
    Вы не можете отвечать на сообщения
    Вы не можете редактировать свои сообщения
    Вы не можете удалять свои сообщения
    Вы не можете голосовать в опросах
    Вы не можете прикреплять файлы к сообщениям
    Вы можете скачивать файлы