Ссылка на приватное зеркало всего за 1$. Внимание количество ограничено!!!

iTunes

1+1

iTunes

мы

MV0

1

WEB-DLRip

Джокер

Пифагор

Ведьмак / The Witcher сериал

iTunes

ПШазам

iTunes

Оно 2

iTunes

30
pack

Вам бонус

ВАЖНО

!!Акция!!

Alien_RageХит недели

RePack

Resident Evil 21

ИГРА 18+

pack

RePack

jed

!!Акция!!

Alien_Rage

RePack

fifa19

RePack

Assassins Creed: Odyssey

RePack

NEED FOR SPEED™ PAYBACK

4 сезон

9 сезон

Бесстыжие 9 сезон

Все сериалы

все сериалы на PB.wtf

RePack

FAR CRY 5
  

Прогулка / The Walk (Роберт Земекис) [2015, триллер, драма, приключения, WEB-DLRip-AVC, Дубляж] iTunes От R.G. Resident piratbit.pw

Прогулка через торрент piratbit.pw

Размер: 2.17 GB | Добавлен: 4 года 2 мес. назад | Торрент скачан:887 раз
Скачать  

17-12-2015 19:51 Прогулка Скачать торрент  

Прогулка / The Walk
««Every dream begins with a single step»»


Год выпуска: 2015
Страна: США
Жанр: триллер, драма, приключения, биография

Продолжительность: 02:03:09
Перевод: Дубляж - [Лицензия / iTunes]
Субтитры: русские (Full),
русские (Forced),
Режиссер: Роберт Земекис
В ролях:

Джозеф Гордон-Левитт (Philippe Petit), Бен Кингсли (Papa Rudy), Стив Валентайн (Barry Greenhouse), Шарлотта Ле Бон (Annie), Джеймс Бэдж Дэйл (Jean-Pierre / J.P.), Бен Шварц (Albert), Бенедикт Сэмюэл (David), Мизинга Мвинга (Officer Foley), Дэниэл Аррош (Officer Clemenza), Джейсон Делайн (Officer Tessio), Серджо Ди Зио (Officer Genco), Даррел Ли-Изард (Officer Washington)
Описание:
Вы боитесь высоты? А можете представить себя идущим по натянутому канату на высоте более 400м без всякой страховки? Потоки ветра обдувают вас, а внизу - город и тысячи взволнованных взглядов, устремленных вверх.
История о том, как французский канатоходец Филипп Пети отважился совершить легендарный трюк - пройти без страховки по канату, натянутому между небоскребами в Нью-Йорке.
Мировая премьера: 26 сентября 2015

Качество: WEB-DLRip-AVC Rip by White Smoke

Формат: MKV
Видео: AVC, 1024x424 (2.40:1), 2141 kbps, 23,976 fps, 0,206 bpp
Аудио: AC3 / 5.1 / 48 kHz / 384 kbps / 16 bit

Код:

General
Unique ID                                : 229006569230975256681438974643635902925 (0xAC490F9814E973E3898F43D89B5659CD)
Complete name                            : C:\WALK.WEB-DLRip-AVC.by.White Smoke.R.G.Resident.mkv
Format                                   : Matroska
Format version                           : Version 4 / Version 2
File size                                : 2.17 GiB
Duration                                 : 2h 3mn
Overall bit rate                         : 2 526 Kbps
Movie name                               : WALK.WEB-DLRip-AVC.by.White Smoke.R.G.Resident.mkv
Encoded date                             : UTC 2015-12-17 19:04:31
Writing application                      : mkvmerge v6.8.0 ('Theme for Great Cities') 64bit built on Mar  2 2014 21:34:26
Writing library                          : libebml v1.3.0 + libmatroska v1.4.1

Video
ID                                       : 1
Format                                   : AVC
Format/Info                              : Advanced Video Codec
Format profile                           : High@L4.1
Format settings, CABAC                   : Yes
Format settings, ReFrames                : 12 frames
Codec ID                                 : V_MPEG4/ISO/AVC
Duration                                 : 2h 3mn
Bit rate                                 : 2 141 Kbps
Width                                    : 1 024 pixels
Height                                   : 424 pixels
Display aspect ratio                     : 2.40:1
Frame rate                               : 23.976 fps
Color space                              : YUV
Chroma subsampling                       : 4:2:0
Bit depth                                : 8 bits
Scan type                                : Progressive
Bits/(Pixel*Frame)                       : 0.206
Stream size                              : 1.80 GiB (83%)
Writing library                          : x264 core 146 r2538 121396c
Encoding settings                        : cabac=1 / ref=12 / deblock=1:-2:-2 / analyse=0x3:0x113 / me=umh / subme=9 / psy=1 / psy_rd=1.00:0.00 / mixed_ref=1 / me_range=32 / chroma_me=1 / trellis=2 / 8x8dct=1 / cqm=0 / deadzone=21,11 / fast_pskip=0 / chroma_qp_offset=-2 / threads=6 / lookahead_threads=1 / sliced_threads=0 / nr=0 / decimate=0 / interlaced=0 / bluray_compat=0 / constrained_intra=0 / bframes=10 / b_pyramid=2 / b_adapt=2 / b_bias=0 / direct=3 / weightb=1 / open_gop=0 / weightp=2 / keyint=250 / keyint_min=23 / scenecut=40 / intra_refresh=0 / rc_lookahead=60 / rc=2pass / mbtree=0 / bitrate=2141 / ratetol=1.0 / qcomp=0.60 / qpmin=0 / qpmax=69 / qpstep=4 / cplxblur=20.0 / qblur=0.5 / vbv_maxrate=14000 / vbv_bufsize=14000 / nal_hrd=none / filler=0 / ip_ratio=1.40 / pb_ratio=1.30 / aq=1:0.80
Default                                  : Yes
Forced                                   : No

Audio
ID                                       : 2
Format                                   : AC-3
Format/Info                              : Audio Coding 3
Mode extension                           : CM (complete main)
Codec ID                                 : A_AC3
Duration                                 : 2h 3mn
Bit rate mode                            : Constant
Bit rate                                 : 384 Kbps
Channel(s)                               : 6 channels
Channel positions                        : Front: L C R, Side: L R, LFE
Sampling rate                            : 48.0 KHz
Bit depth                                : 16 bits
Compression mode                         : Lossy
Stream size                              : 338 MiB (15%)
Default                                  : Yes
Forced                                   : No

Text #1
ID                                       : 3
Format                                   : UTF-8
Codec ID                                 : S_TEXT/UTF8
Codec ID/Info                            : UTF-8 Plain Text
Title                                    : Full
Language                                 : Russian
Default                                  : No
Forced                                   : No

Text #2
ID                                       : 4
Format                                   : UTF-8
Codec ID                                 : S_TEXT/UTF8
Codec ID/Info                            : UTF-8 Plain Text
Title                                    : Forced
Language                                 : Russian
Default                                  : Yes
Forced                                   : Yes


© Оформление by White Smoke piratbit.pw



Скачать Прогулка через торрент http://i75.fastpic.ru/big/2015/1217/ff/3c71ebf1c6d8fef41dc0a58476c75dff.png Скачать фильм Прогулка через торрент бесплантно в хорошем качестве Описание: Вы боитесь высоты? А можете представить себя идущим по натянутому канату на высоте более 400м без всякой страховки? Потоки ветра ... 9.3 10 16
Info! Золотая раздача, скачанное не засчитывается.
Торрент: Зарегистрирован [2015-12-17 19:51] · скачан: 887 раз
Статус: √ проверено
Размер: 2.17 GB
Как cкачать? Как скачать Прогулка через торрент | qTorrent

28-11-2019 20:33  

Отключить всю рекламу на сайте

18-12-2015 05:45 Прогулка Скачать торрент  

не запускается, что делать?
Ошибка:
Не удалось загрузить "file:///C:/Users/%D00XF.C20CP-9742%D0%B0%D0%BD%D10.000000/Downloads/%5BPB.wtf%5D.892075.torrent" : "Cannot load transport file"
Ошибка:
Cannot load transport filepiratbit.pw



18-12-2015 13:06 Прогулка Скачать торрент  

agpro писал(а):

не запускается, что делать?
Ошибка:
Не удалось загрузить "file:///C:/Users/%D00XF.C20CP-9742%D0%B0%D0%BD%D10.000000/Downloads/%5BPB.wtf%5D.892075.torrent" : "Cannot load transport file"
Ошибка:
Cannot load transport file

Смените видеокодекиpiratbit.pw



18-12-2015 19:33 Прогулка Скачать торрент  

Есть субтитры отдельным файлом?piratbit.pw



27-12-2015 14:39 Прогулка Скачать торрент  

Отличное киноха!piratbit.pw



    Дорогой пользователь! Огромная просьба, поблагодарите релизера, оцените раздачу и оставьте свои комментарий, если Вы скачали Прогулка через торрент бесплатно! Внесите свою лепту в развитие PiratBit!
    Комментировать посты могут только пользователи прошедшие не сложную регистрацию
    Показать сообщения:    

    Прогулка через торрент
    Скачать бесплатно Прогулка
    Прогулка скачать торрент
    Прогулка смотреть онлайн
    Cкачать фильм Прогулка бесплатно
    Прогулка скачать торрент в хорошем качестве
    Прогулка смотреть онлайн бесплатно в хорошем качестве


    Вы не можете начинать темы
    Вы не можете отвечать на сообщения
    Вы не можете редактировать свои сообщения
    Вы не можете удалять свои сообщения
    Вы не можете голосовать в опросах
    Вы не можете прикреплять файлы к сообщениям
    Вы можете скачивать файлы