Ссылка на приватное зеркало нашего сайта всего за 1$. Внимание количество ограничено!!!

2 сезон

iTunes

iTunes

1

iTunes

iTunes

iTunes

WEBRip

iTunes

30
pack

Вам бонус

ВАЖНО

!!Акция!!

Alien_RageХит недели

RePack

Horizon Zero Dawn

ИГРА 18+

pack

RePack

jed

!!Акция!!

Alien_Rage

RePack

fifa19

RePack

Assassins Creed: Odyssey

RePack

NEED FOR SPEED™ PAYBACK

4 сезон

9 сезон

Бесстыжие 9 сезон

Все сериалы

все сериалы на PB.wtf

RePack

FAR CRY 5
  

Зеленая карета (Олег Асадулин) [2015, драма, WEB-DL 1080p] [Русский] piratbit.pw

Зеленая карета через торрент piratbit.pw

Размер: 3.09 GB | Добавлен: 4 года 9 мес. назад | Торрент скачан:292 раза
Скачать  

17-12-2015 07:37 Зеленая карета Скачать торрент  

Зеленая карета«Жизнь - это совсем другое кино»

  • Год выхода: 2015
  • Жанр: драма
  • Страна: Россия
  • Продолжительность: 01:30:27
  • Перевод: Не требуется [iTunes]
  • Режиссер: Олег Асадулин
  • В ролях:

    Андрей Мерзликин (Вадим Раевский), Виктория Исакова (Вера Раевская), Александр Мичков (Тёма), Сергей Юшкевич (Паша), Владимир Меньшов (профессор Добролюбов), Анна Чиповская (Марина), Ян Цапник, Женя Малахова, Дмитрий Астрахан, Андрей Леонов, Дмитрий Смирнов (Макс), Ксения Энтелис


  • Вадим Раевский - известный режиссер, у которого есть все: деньги, красивые женщины, всеобщее признание. Его новый фильм даже выдвигают на «Оскар». Казалось, удача сама преследует его, но всегда ли она будет к нему благосклонна? Буквально в один миг его привычный мир рушится. Вадим пытается разобраться в случившемся, но чем дальше он заходит в своем расследовании, тем больше шокирующих подробностей ему открывается...

  • Качество: WEB-DL 1080p
  • Формат: MKV
  • Видео кодек: AVC
  • Аудио кодек: AC3
  • Видео: AVC, 1920x802 (2.40:1), 4408 kbps, 25 fps, 0,115 bpp
  • Аудио: русский / AC3 / 5.1 / 48 kHz / 384 kbps / 16 bit
  • Навигация по главам: есть

    Код:

    General
    Unique ID                                : 215780439321558570323880215388430891951 (0xA255CD0B13383CD5A7260668EAAD7BAF)
    Complete name                            : H:\3eleHaia.Kareta.2015.O.WEB-DL.1080p.mkv
    Format                                   : Matroska
    Format version                           : Version 4 / Version 2
    File size                                : 3.09 GiB
    Duration                                 : 1h 30mn
    Overall bit rate                         : 4 890 Kbps
    Encoded date                             : UTC 2015-12-17 05:05:39
    Writing application                      : mkvmerge v8.3.0 ('Over the Horizon') 64bit
    Writing library                          : libebml v1.3.1 + libmatroska v1.4.2

    Video
    ID                                       : 1
    Format                                   : AVC
    Format/Info                              : Advanced Video Codec
    Format profile                           : High@L4.0
    Format settings, CABAC                   : Yes
    Format settings, ReFrames                : 5 frames
    Codec ID                                 : V_MPEG4/ISO/AVC
    Duration                                 : 1h 30mn
    Bit rate                                 : 4 409 Kbps
    Width                                    : 1 920 pixels
    Height                                   : 802 pixels
    Display aspect ratio                     : 2.40:1
    Frame rate                               : 25.000 fps
    Color space                              : YUV
    Chroma subsampling                       : 4:2:0
    Bit depth                                : 8 bits
    Scan type                                : Progressive
    Bits/(Pixel*Frame)                       : 0.115
    Stream size                              : 2.79 GiB (90%)
    Language                                 : English
    Default                                  : Yes
    Forced                                   : No
    Color primaries                          : BT.709-5, BT.1361, IEC 61966-2-4, SMPTE RP177
    Transfer characteristics                 : BT.709-5, BT.1361
    Matrix coefficients                      : BT.709-5, BT.1361, IEC 61966-2-4 709, SMPTE RP177

    Audio
    ID                                       : 2
    Format                                   : AC-3
    Format/Info                              : Audio Coding 3
    Mode extension                           : CM (complete main)
    Codec ID                                 : A_AC3
    Duration                                 : 1h 30mn
    Bit rate mode                            : Constant
    Bit rate                                 : 384 Kbps
    Channel(s)                               : 6 channels
    Channel positions                        : Front: L C R, Side: L R, LFE
    Sampling rate                            : 48.0 KHz
    Bit depth                                : 16 bits
    Compression mode                         : Lossy
    Stream size                              : 248 MiB (8%)
    Language                                 : Russian
    Default                                  : Yes
    Forced                                   : No

    Menu
    00:00:00.000                             : en:Глава 1
    00:05:25.000                             : en:Глава 2
    00:11:14.000                             : en:Глава 3
    00:16:42.000                             : en:Глава 4
    00:22:20.000                             : en:Глава 5
    00:27:38.000                             : en:Глава 6
    00:33:00.000                             : en:Глава 7
    00:39:33.000                             : en:Глава 8
    00:45:51.000                             : en:Глава 9
    00:51:44.000                             : en:Глава 10
    00:58:18.000                             : en:Глава 11
    01:04:33.000                             : en:Глава 12
    01:10:17.000                             : en:Глава 13
    01:15:40.000                             : en:Глава 14
    01:21:59.000                             : en:Глава 15

    Скриншоты:


    © Оформление by -Lexx- piratbit.pw



  • Скачать Зеленая карета через торрент http://pic.kartinco.top/images/6/stazu.jpg Скачать фильм Зеленая карета через торрент бесплантно в хорошем качестве qw.png Вадим Раевский - известный режиссер, у которого есть все: деньги, красивые женщины, всеобщее признание. Его новый фильм даже ... 10 10 13
    Торрент: Зарегистрирован [2015-12-17 07:37] · скачан: 292 раз
    Статус: √ проверено
    Размер: 3.09 GB
    Как cкачать? Как скачать Зеленая карета через торрент | qTorrent

    % Раздел Тема Автор DL S | L
    R.G. Resident & PiratVoice - Фильмы, Видео [ 1.7 GB ] Зеленая карета [2015 WEB-DLRip-AVC] -Lexx- Скачать
    1 | 0
    Наши новые фильмы 2015 [ 1.45 GB ] Зеленая карета [2015 WEB-DLRip] [Русский] -Lexx- Скачать
    1 | 0

    28-11-2019 20:33  

    Отключить всю рекламу на сайте

    17-12-2015 22:39 Зеленая карета Скачать торрент  

    фильм о нелегкой судьбе мажораpiratbit.pw



    13-01-2016 08:08 Зеленая карета Скачать торрент  

    Хороший фильм. Подробности http:// удаленоpiratbit.pw



      ссылка на сторонний ресурс, выдал -Lexx-
      Дорогой пользователь! Огромная просьба, поблагодарите релизера, оцените раздачу и оставьте свои комментарий, если Вы скачали Зеленая карета через торрент бесплатно! Внесите свою лепту в развитие PiratBit!
      Комментировать посты могут только пользователи прошедшие не сложную регистрацию
      Показать сообщения:    

      Зеленая карета через торрент
      Скачать бесплатно Зеленая карета
      Зеленая карета скачать торрент
      Зеленая карета смотреть онлайн
      Cкачать фильм Зеленая карета бесплатно
      Зеленая карета скачать торрент в хорошем качестве
      Зеленая карета смотреть онлайн бесплатно в хорошем качестве


      Вы не можете начинать темы
      Вы не можете отвечать на сообщения
      Вы не можете редактировать свои сообщения
      Вы не можете удалять свои сообщения
      Вы не можете голосовать в опросах
      Вы не можете прикреплять файлы к сообщениям
      Вы можете скачивать файлы