Ссылка на приватное зеркало всего за 1$. Внимание количество ограничено!!!

iTunes

1+1

iTunes

мы

MV0

1

WEB-DLRip

Джокер

Пифагор

Ведьмак / The Witcher сериал

iTunes

ПШазам

iTunes

Оно 2

iTunes

30
pack

Вам бонус

ВАЖНО

!!Акция!!

Alien_RageХит недели

RePack

Resident Evil 21

ИГРА 18+

pack

RePack

jed

!!Акция!!

Alien_Rage

RePack

fifa19

RePack

Assassins Creed: Odyssey

RePack

NEED FOR SPEED™ PAYBACK

4 сезон

9 сезон

Бесстыжие 9 сезон

Все сериалы

все сериалы на PB.wtf

RePack

FAR CRY 5
  

Преступная деятельность / Criminal Activities (Джеки Эрл Хейли) [2015, триллер, драма, криминал, WEB-DLRip-AVC, MVO (IdeaFilm)] R.G.Resident piratbit.pw

Преступная деятельность через торрент piratbit.pw

Размер: 2.18 GB | Добавлен: 4 года 2 мес. назад | Торрент скачан:948 раз
Скачать  

15-12-2015 19:00 Преступная деятельность Скачать торрент  

Преступная деятельность / Criminal Activities
Год выпуска: 2015
Страна: США
Жанр: триллер, драма, криминал
Продолжительность: 01:33:53
Перевод: Профессиональный (многоголосый) (IdeaFilm)
Режиссер: Джеки Эрл Хейли
В ролях:

Майкл Питт (Zach), Дэн Стивенс (Noah), Кристофер Эбботт (Warren), Роб Браун (Bryce), Эди Гатеги (Marques), Джеки Эрл Хейли (Gerry), Джон Траволта (Eddie), Морган Волк (Janie), Трэвис Аарон (Agent Santos), Алан Б. Джонс (Agent Reichert), Chris Haley (Matthew), Кристофер Джей Грешам (Little Mike)
Описание:
Четверо молодых людей инвестировали деньги в рискованное дело, которое приводит их к конфликту с мафией.
Мировая премьера: 20 ноября 2015

Качество: WEB-DLRip-AVC Rip by schultz R.G.Resident
Формат: MKV
Видео: AVC, 1024x424 (2.40:1), 2939 kbps, 23,976 fps, 0,282 bpp
Аудио: AC3 / 5.1 / 48 kHz / 384 kbps / 16 bit

Код:

Общее
Уникальный идентификатор                 : 197470325625694840107856134544127298519 (0x948F66BD3CEC188683D95F2288720BD7)
Полное имя                               : D:\download\Criminal.Activities.2015.WEB-DLRip-AVC by schultz R.G.Resident.mkv
Формат                                   : Matroska
Версия формата                           : Version 2
Размер файла                             : 2,18 Гбайт
Продолжительность                        : 1 ч. 33 м.
Общий поток                              : 3325 Кбит/сек
Дата кодирования                         : UTC 2015-12-15 01:36:33
Программа кодирования                    : mkvmerge v6.1.0 ('Old Devil') built on Mar  4 2013 09:10:42
Библиотека кодирования                   : libebml v1.3.0 + libmatroska v1.4.0

Видео
Идентификатор                            : 1
Формат                                   : AVC
Формат/Информация                        : Advanced Video Codec
Профиль формата                          : High@L4.1
Параметр CABAC формата                   : Да
Параметр ReFrames формата                : 12 кадров
Идентификатор кодека                     : V_MPEG4/ISO/AVC
Продолжительность                        : 1 ч. 33 м.
Битрейт                                  : 2939 Кбит/сек
Ширина                                   : 1024 пикселя
Высота                                   : 424 пикселя
Соотношение сторон                       : 2,40:1
Режим частоты кадров                     : Постоянный
Частота кадров                           : 23,976 кадра/сек
Цветовое пространство                    : YUV
Субдискретизация насыщенности            : 4:2:0
Битовая глубина                          : 8 бит
Тип развёртки                            : Прогрессивная
Бит/(Пиксели*Кадры)                      : 0.282
Размер потока                            : 1,89 Гбайт (86%)
Библиотека кодирования                   : x264 core 130 r2273 b3065e6
Настройки программы                      : cabac=1 / ref=12 / deblock=1:-2:-2 / analyse=0x3:0x113 / me=umh / subme=11 / psy=1 / psy_rd=1.00:0.15 / mixed_ref=1 / me_range=32 / chroma_me=1 / trellis=2 / 8x8dct=1 / cqm=0 / deadzone=21,11 / fast_pskip=1 / chroma_qp_offset=-3 / threads=12 / lookahead_threads=2 / sliced_threads=0 / nr=0 / decimate=0 / interlaced=0 / bluray_compat=0 / constrained_intra=0 / bframes=9 / b_pyramid=2 / b_adapt=2 / b_bias=0 / direct=3 / weightb=1 / open_gop=0 / weightp=2 / keyint=240 / keyint_min=23 / scenecut=40 / intra_refresh=0 / rc_lookahead=40 / rc=2pass / mbtree=1 / bitrate=2939 / ratetol=1.0 / qcomp=0.60 / qpmin=0 / qpmax=69 / qpstep=4 / cplxblur=20.0 / qblur=0.5 / vbv_maxrate=17500 / vbv_bufsize=14000 / nal_hrd=none / ip_ratio=1.40 / aq=1:0.80
Default                                  : Да
Forced                                   : Нет

Аудио
Идентификатор                            : 2
Формат                                   : AC-3
Формат/Информация                        : Audio Coding 3
Расширение режима                        : CM (complete main)
Параметр Endianness формата              : Big
Идентификатор кодека                     : A_AC3
Продолжительность                        : 1 ч. 33 м.
Вид битрейта                             : Постоянный
Битрейт                                  : 384 Кбит/сек
Каналы                                   : 6 каналов
Расположение каналов                     : Front: L C R, Side: L R, LFE
Частота                                  : 48,0 КГц
Битовая глубина                          : 16 бит
Метод сжатия                             : С потерями
Размер потока                            : 258 Мбайт (12%)
Default                                  : Да
Forced                                   : Нет


piratbit.pw



Скачать Преступная деятельность через торрент http://i76.fastpic.ru/big/2015/1215/16/5dbb108816246742843867c00770c916.png Скачать фильм Преступная деятельность через торрент бесплантно в хорошем качестве Описание: Четверо молодых людей инвестировали деньги в рискованное дело, которое приводит их к конфликту с мафией.✦ Мировая премьера: 20 ... 9 10 17
Info! Золотая раздача, скачанное не засчитывается.
Торрент: Зарегистрирован [2015-12-15 19:00] · скачан: 948 раз
Статус: √ проверено
Размер: 2.18 GB
Как cкачать? Как скачать Преступная деятельность через торрент | qTorrent

28-11-2019 20:33  

Отключить всю рекламу на сайте

15-12-2015 22:20 Преступная деятельность Скачать торрент  

рецензии на кинопоиске унылые, а трейлер веселенький такой.. рискну скачаю наверно.piratbit.pw



16-12-2015 07:37 Преступная деятельность Скачать торрент  

tamburetko писал(а):

рецензии на кинопоиске унылые, а трейлер веселенький такой.. рискну скачаю наверно.

отпишись потомpiratbit.pw



20-12-2015 14:43 Преступная деятельность Скачать торрент  

Фильмец так себе... Но для того, кто выдержал просмотр до конца, ждет сюрприз!... Развязка - бомба!!! piratbit.pw



06-01-2016 17:30 Преступная деятельность Скачать торрент  

Что то для Траволты, рейтинг слабыйpiratbit.pw



    Дорогой пользователь! Огромная просьба, поблагодарите релизера, оцените раздачу и оставьте свои комментарий, если Вы скачали Преступная деятельность через торрент бесплатно! Внесите свою лепту в развитие PiratBit!
    Комментировать посты могут только пользователи прошедшие не сложную регистрацию
    Показать сообщения:    

    Преступная деятельность через торрент
    Скачать бесплатно Преступная деятельность
    Преступная деятельность скачать торрент
    Преступная деятельность смотреть онлайн
    Cкачать фильм Преступная деятельность бесплатно
    Преступная деятельность скачать торрент в хорошем качестве
    Преступная деятельность смотреть онлайн бесплатно в хорошем качестве


    Вы не можете начинать темы
    Вы не можете отвечать на сообщения
    Вы не можете редактировать свои сообщения
    Вы не можете удалять свои сообщения
    Вы не можете голосовать в опросах
    Вы не можете прикреплять файлы к сообщениям
    Вы можете скачивать файлы