Ссылка на приватное зеркало всего за 1$. Внимание количество ограничено!!!

iTunes

1+1

iTunes

мы

MV0

1

WEB-DLRip

Джокер

Пифагор

Ведьмак / The Witcher сериал

iTunes

ПШазам

iTunes

Оно 2

iTunes

30
pack

Вам бонус

ВАЖНО

!!Акция!!

Alien_RageХит недели

RePack

Resident Evil 21

ИГРА 18+

pack

RePack

jed

!!Акция!!

Alien_Rage

RePack

fifa19

RePack

Assassins Creed: Odyssey

RePack

NEED FOR SPEED™ PAYBACK

4 сезон

9 сезон

Бесстыжие 9 сезон

Все сериалы

все сериалы на PB.wtf

RePack

FAR CRY 5
  

Разрушительница / The Demolitionist (Роберт Куртцман) [1995, фантастика, боевик, триллер, HDRip-AVC, Профессиональный (двухголосый) От R.G.Resident piratbit.pw

Разрушительница через торрент piratbit.pw

Размер: 1.46 GB | Добавлен: 4 года 2 мес. назад | Торрент скачан:20 раз
Скачать  

15-12-2015 12:13 Разрушительница Скачать торрент  

Разрушительница / The Demolitionist
««Hell Has No Fury...Like A Woman Transformed»»


Год выпуска: 1995
Страна: США
Жанр: фантастика, боевик, триллер

Продолжительность: 01:32:58
Перевод: Профессиональный (двухголосый)
Режиссер: Роберт Куртцман
В ролях:

Николь Эггерт (Alyssa Lloyd), Брюс Эбботт (Prof. Jack Crowley), Сьюзен Тиррел (Mayor Eleanor Grimbaum), Питер Джейсон (Higgins), Сара Дуглас (Surgeon), Андрас Джонс (Daniel Dupre), Хэзер Лэнгенкэмп (Christy Carruthers), Дэвид Энтони Маршалл (One Eye), Ричард Греко (Mad Dog Burne), Рэнди Васкес (Little Henry Burne), Yvonne M. Cohrs (Mall Patron #1), Кристофер Сандервульф (Mall Patron #2)
Описание:
Волна преступности захлестнула Метро-сити. Во время одной из специальных операций офицер полиции Алиса Ллойд была зверски убита Бешеным Псом и его бандой. Но с помощью чудо - технологии сверхсекретного проекта «Лазарус» Алиса Ллойд вернулась из мертвых.
Теперь она - «Разрушительница», новое поколение сил охраны правопорядка, биогенетически усовершенствованный солдат правосудия, вооруженный всеми видами суперсовременного оружия. «Разрушительница» начинает свой крестовый поход против банды Бешеного Пса. На этот раз война с преступностью ведется с применением самых крайних мер.
Мировая премьера: 10 марта 1995

Качество: HDRip-AVC (исх. BDRip 720р) Rip by White Smoke

Формат: MKV
Видео: AVC, 1024x576 (16:9), 2059 kbps, 24 fps, 0,145 bpp
Аудио: русский / AC3 / 2.0 / 48 kHz / 192 kbps / 16 bit ||

Код:

General
Unique ID                                : 226528672255432177775537958431268704237 (0xAA6BD5D743506F1DA359BB59440E8FED)
Complete name                            : C:\The.Demolitionist.1995.HDRip-AVC.by.White Smoke. R.G.Resident.mkv
Format                                   : Matroska
Format version                           : Version 4 / Version 2
File size                                : 1.46 GiB
Duration                                 : 1h 32mn
Overall bit rate                         : 2 252 Kbps
Movie name                               : The.Demolitionist.1995.HDRip-AVC.by.White Smoke. R.G.Resident.mkv
Encoded date                             : UTC 2015-12-15 11:22:59
Writing application                      : mkvmerge v6.8.0 ('Theme for Great Cities') 64bit built on Mar  2 2014 21:34:26
Writing library                          : libebml v1.3.0 + libmatroska v1.4.1

Video
ID                                       : 1
Format                                   : AVC
Format/Info                              : Advanced Video Codec
Format profile                           : High@L4.1
Format settings, CABAC                   : Yes
Format settings, ReFrames                : 12 frames
Codec ID                                 : V_MPEG4/ISO/AVC
Duration                                 : 1h 32mn
Bit rate                                 : 2 059 Kbps
Width                                    : 1 024 pixels
Height                                   : 576 pixels
Display aspect ratio                     : 16:9
Frame rate                               : 24.000 fps
Color space                              : YUV
Chroma subsampling                       : 4:2:0
Bit depth                                : 8 bits
Scan type                                : Progressive
Bits/(Pixel*Frame)                       : 0.145
Stream size                              : 1.31 GiB (89%)
Writing library                          : x264 core 148 r2638 7599210
Encoding settings                        : cabac=1 / ref=12 / deblock=1:-3:-3 / analyse=0x3:0x113 / me=umh / subme=9 / psy=1 / psy_rd=1.00:0.00 / mixed_ref=1 / me_range=32 / chroma_me=1 / trellis=1 / 8x8dct=1 / cqm=0 / deadzone=21,11 / fast_pskip=1 / chroma_qp_offset=-2 / threads=6 / lookahead_threads=1 / sliced_threads=0 / nr=0 / decimate=1 / interlaced=0 / bluray_compat=0 / constrained_intra=0 / bframes=10 / b_pyramid=2 / b_adapt=2 / b_bias=10 / direct=1 / weightb=0 / open_gop=0 / weightp=2 / keyint=240 / keyint_min=24 / scenecut=40 / intra_refresh=0 / rc_lookahead=40 / rc=2pass / mbtree=1 / bitrate=2059 / ratetol=1.0 / qcomp=0.65 / qpmin=0 / qpmax=69 / qpstep=4 / cplxblur=20.0 / qblur=0.5 / ip_ratio=1.40 / aq=1:1.00
Language                                 : English
Default                                  : Yes
Forced                                   : No

Audio
ID                                       : 2
Format                                   : AC-3
Format/Info                              : Audio Coding 3
Mode extension                           : CM (complete main)
Codec ID                                 : A_AC3
Duration                                 : 1h 32mn
Bit rate mode                            : Constant
Bit rate                                 : 192 Kbps
Channel(s)                               : 2 channels
Channel positions                        : Front: L R
Sampling rate                            : 48.0 KHz
Bit depth                                : 16 bits
Compression mode                         : Lossy
Stream size                              : 128 MiB (9%)
Title                                    : The.Demolitionist.1995.HDRip-AVC.by.White Smoke. R.G.Resident.mkv
Language                                 : Russian
Default                                  : Yes
Forced                                   : Yes


© Оформление by White Smoke piratbit.pw



Скачать Разрушительница через торрент http://i2.imageban.ru/out/2015/12/15/d15c7c8ac68fd4a3457d4b79207fa5a5.jpg Скачать фильм Разрушительница через торрент бесплантно в хорошем качестве Описание: Волна преступности захлестнула Метро-сити. Во время одной из специальных операций офицер полиции Алиса Ллойд была зверски убита ... 7.5 10 8
Info! Золотая раздача, скачанное не засчитывается.
Торрент: Зарегистрирован [2015-12-15 12:13] · скачан: 20 раз
Статус: √ проверено
Размер: 1.46 GB
Как cкачать? Как скачать Разрушительница через торрент | qTorrent

28-11-2019 20:33  

Отключить всю рекламу на сайте

    Дорогой пользователь! Огромная просьба, поблагодарите релизера, оцените раздачу и оставьте свои комментарий, если Вы скачали Разрушительница через торрент бесплатно! Внесите свою лепту в развитие PiratBit!
    Комментировать посты могут только пользователи прошедшие не сложную регистрацию
    Показать сообщения:    

    Разрушительница через торрент
    Скачать бесплатно Разрушительница
    Разрушительница скачать торрент
    Разрушительница смотреть онлайн
    Cкачать фильм Разрушительница бесплатно
    Разрушительница скачать торрент в хорошем качестве
    Разрушительница смотреть онлайн бесплатно в хорошем качестве


    Вы не можете начинать темы
    Вы не можете отвечать на сообщения
    Вы не можете редактировать свои сообщения
    Вы не можете удалять свои сообщения
    Вы не можете голосовать в опросах
    Вы не можете прикреплять файлы к сообщениям
    Вы можете скачивать файлы