1 сезон

1 сезон

iTunes

1

КиноПоиск HD

Кинопоиск HD

iTunes

13

1 сезон

RePack

30

Новинка

ВАЖНО

ИГРА 18+

pack

RePack

MK11
pack

Легкие деньги

RePack

jed

RePack

fifa19

RePack

RDR2

RePack

NEED FOR SPEED™ PAYBACK

4 сезон

9 сезон

Бесстыжие 9 сезон

Все сериалы

все сериалы на PB.wtf

RePack

FAR CRY 5
  
Magnet ссылка

Идеальный побег / A Perfect Getaway (Дэвид Туи ) [2009, триллер, детектив, приключения, BDRip 720p] Авторский одноголосый [Юрий Немахов] Расширенная версия / Extended Cut] piratbit.pw

Идеальный побег через торрент piratbit.pw

Размер: 3.57 GB | Добавлен: 5 лет 4 мес. назад | Торрент скачан:19 раз
Скачать  

13-12-2015 16:24 Идеальный побег Скачать торрент  

Идеальный побег / A Perfect Getaway

Год выпуска: 2009
Страна: США
Жанр: триллер, детектив, приключения

Продолжительность: 01:47:39
Перевод: Авторский одноголосый [Юрий Немахов]
Режиссер: Дэвид Туи
В ролях: Стив Зан (Cliff), Тимоти Олифант (Nick), Милла Йовович (Cydney), Киле Санчес (Gina), Марли Шелтон (Cleo), Крис Хемсворт (Kale), Энтони Руйвивар (Chronic), Дейл Дикки (Earth Momma), Питер Нэви Туясосопо (Supply Guy), Венди Браун (Debbie Mason / Clerk), Джим Круз (Helicopter Pilot), Анджела Сунь (Counter Girl)
Описание:
Медовый месяц - самое счастливое время для молодоженов. Они - красивая пара, добившаяся успеха в жизни и впереди ожидающая только счастья и радости! Их свадебное путешествие на Гавайи похоже на сказку. Правда, все это омрачается грозными сообщениями о том, что на острове, куда они отправились, орудуют серийные убийцы.
Рейтинг:

MPAA: R - Лицам до 17 лет обязательно присутствие взрослого
Качество: BDRip 720p
Формат: MKV
Видео кодек: AVC
Аудио кодек: AC3
Видео: AVC, 1280x544 (2.35:1), 4303 kbps, 23,976 fps, 0,258 bpp
Аудио: AC3 / 2 ch / 48 kHz / 448 kbps / 16 bit

Код:

General
Unique ID                                : 183831979855967670411816774098526295381 (0x8A4CC0609A9F2E8DBC5353C037B25555)
Complete name                            : C:\Users\tut\Desktop\A Perfect Getaway.mkv
Format                                   : Matroska
Format version                           : Version 2
File size                                : 3.57 GiB
Duration                                 : 1h 47mn
Overall bit rate                         : 4 751 Kbps
Movie name                               : A Perfect Getaway Unrated 2009 BDRip 1080p - ylnian
Encoded date                             : UTC 2015-12-10 22:14:51
Writing application                      : mkvmerge v4.2.0 ('No Talking') сборка от Jul 28 2010 18:38:23
Writing library                          : libebml v1.0.0 + libmatroska v1.0.0

Video
ID                                       : 1
Format                                   : AVC
Format/Info                              : Advanced Video Codec
Format profile                           : High@L4.1
Format settings, CABAC                   : Yes
Format settings, ReFrames                : 5 frames
Muxing mode                              : Header stripping
Codec ID                                 : V_MPEG4/ISO/AVC
Duration                                 : 1h 47mn
Bit rate                                 : 4 303 Kbps
Width                                    : 1 280 pixels
Height                                   : 544 pixels
Display aspect ratio                     : 2.35:1
Frame rate                               : 23.976 fps
Color space                              : YUV
Chroma subsampling                       : 4:2:0
Bit depth                                : 8 bits
Scan type                                : Progressive
Bits/(Pixel*Frame)                       : 0.258
Stream size                              : 3.17 GiB (89%)
Writing library                          : x264 core 79 r1342 e8501ef
Encoding settings                        : cabac=1 / ref=5 / deblock=1:0:0 / analyse=0x3:0x133 / me=umh / subme=7 / psy=1 / psy_rd=1.0:0.0 / mixed_ref=1 / me_range=16 / chroma_me=1 / trellis=1 / 8x8dct=1 / cqm=0 / deadzone=21,11 / chroma_qp_offset=-2 / threads=12 / nr=0 / decimate=1 / mbaff=0 / constrained_intra=0 / bframes=3 / b_pyramid=0 / b_adapt=1 / b_bias=0 / direct=1 / wpredb=1 / wpredp=2 / keyint=250 / keyint_min=25 / scenecut=40 / rc_lookahead=40 / rc=2pass / mbtree=1 / bitrate=4303 / ratetol=1.0 / qcomp=0.60 / qpmin=10 / qpmax=51 / qpstep=4 / cplxblur=20.0 / qblur=0.5 / ip_ratio=1.40 / aq=1:1.00
Language                                 : English
Default                                  : Yes
Forced                                   : No

Audio
ID                                       : 2
Format                                   : AC-3
Format/Info                              : Audio Coding 3
Mode extension                           : CM (complete main)
Muxing mode                              : Header stripping
Codec ID                                 : A_AC3
Duration                                 : 1h 47mn
Bit rate mode                            : Constant
Bit rate                                 : 448 Kbps
Channel(s)                               : 2 channels
Channel positions                        : Front: L R
Sampling rate                            : 48.0 KHz
Bit depth                                : 16 bits
Compression mode                         : Lossy
Delay relative to video                  : 11ms
Stream size                              : 345 MiB (9%)
Title                                    : AVO (Немахов)
Language                                 : Russian
Default                                  : Yes
Forced                                   : No


piratbit.pw



Скачать Идеальный побег через торрент http://i5.imageban.ru/out/2015/12/13/dc2244b87a4ee3706d5769a84e442b1c.png Скачать фильм Идеальный побег через торрент бесплантно в хорошем качестве Описание: Медовый месяц - самое счастливое время для молодоженов. Они - красивая пара, добившаяся успеха в жизни и впереди ожидающая только ... 10 10 5
Торрент: Зарегистрирован [2015-12-13 16:24] · скачан: 19 раз
Статус: √ проверено
Размер: 3.57 GB
Как cкачать? Как скачать Идеальный побег через торрент | UTorrent

% Раздел Тема Автор DL S | L
Фильмы 2009 [ 1.46 GB ] Идеальный побег / A Perfect Getaway [2009 2009 DVDRip] aspace Скачать
1 | 0
Фильмы 2010 [ 1.45 GB ] Идеальный побег / A Perfect Getaway [2010 HDRip-AVC] DUB stalonе Скачать
1 | 0
Фильмы 2009 [ 2.59 GB ] Идеальный побег / A Perfect Getaway [2009 BDRip-AVC лицензия] Sудья Скачать
1 | 0
Фильмы 2009 [ 1.65 GB ] Идеальный побег / A Perfect Getaway [UNRATED Director's Cut] [2009 HDRip лицензия] diletant Скачать
1 | 0
Фильмы [HD 720p, 1080p] (Хороший звук DUB, MVO) [ 8.75 GB ] Идеальный побег / A Perfect Getaway [2009 BDRip ] Flint3 Скачать
1 | 0
Фильмы [HD 720p, 1080p] (Хороший звук DUB, MVO) [ 4.63 GB ] Идеальный побег / A Perfect Getaway [2009 BDRip ] Anonymous Скачать
1 | 0

28-11-2019 20:33  

Отключить всю рекламу на сайте

    Дорогой пользователь! Огромная просьба, поблагодарите релизера, оцените раздачу и оставьте свои комментарий, если Вы скачали Идеальный побег через торрент бесплатно! Внесите свою лепту в развитие PiratBit!
    Комментировать посты могут только пользователи прошедшие не сложную регистрацию
    Показать сообщения:    

    Идеальный побег через торрент
    Скачать бесплатно Идеальный побег
    Идеальный побег скачать торрент
    Идеальный побег смотреть онлайн
    Cкачать фильм Идеальный побег бесплатно
    Идеальный побег скачать торрент в хорошем качестве
    Идеальный побег смотреть онлайн бесплатно в хорошем качестве


    Вы не можете начинать темы
    Вы не можете отвечать на сообщения
    Вы не можете редактировать свои сообщения
    Вы не можете удалять свои сообщения
    Вы не можете голосовать в опросах
    Вы не можете прикреплять файлы к сообщениям
    Вы можете скачивать файлы