Ссылка на приватное зеркало нашего сайта всего за 1$. Внимание количество ограничено!!!

2 сезон

iTunes

1 сезон

1

2 сезон

2 сезон

iTunes

1 сезон

RePack

30

Ultimate

ВАЖНО

ИГРА 18+

pack

RePack

MK11
pack

Забери бонус

RePack

jed

!!Акция!!

Alien_Rage

RePack

fifa19

RePack

Assassins Creed: Odyssey

RePack

NEED FOR SPEED™ PAYBACK

4 сезон

9 сезон

Бесстыжие 9 сезон

Все сериалы

все сериалы на PB.wtf

RePack

FAR CRY 5
  

Муфта, Полботинка и Моховая Борода 2 (Аво Пайстик) [ 1987 , СССР , мультфильм, короткометражка , DVDRip , DUB] piratbit.pw

Муфта, Полботинка и Моховая Борода 2 через торрент piratbit.pw

Размер: 364 MB | Добавлен: 4 года 11 мес. назад | Торрент скачан:43 раза
Скачать  

12-12-2015 03:10 Муфта, Полботинка и Моховая Борода 2 Скачать торрент  

Муфта, Полботинка и Моховая Борода 2Год выпуска:1987
Страна: СССР
Жанр: мультфильм, короткометражка
Продолжительность: 00:29:11
Перевод: Профессиональный (полное дублирование)

Субтитры: Нет
Режиссер: Аво Пайстик

В ролях: Аарне Юкскюла (озвучка), Юрий Крюков (озвучка), Мария Клёнская (озвучка), Ита Эвер (озвучка), Гунар Килгас (озвучка)
Описание:
Мультфильм рассказывает о приключениях трех накситраллей, похожих на гномов. Вы быстро подружитесь с веселыми друзьями, которые благодаря своей находчивости выходят из всех затруднительных положений.
Рейтинг
imdb.com: 7.30 (26)
Качество: DVDRip
Формат: AVI
Видео кодек: XviD
Аудио кодек: AC3
Видео: DivX 5, 640x480 (4:3), 1541 kbps, 25 fps, 0,201 bpp
Аудио: AC3 / 2.0 / 48 kHz / 192 kbps / 16 bit© Оформление by ФёдорOFF
General
Complete name : D:\раздачи\Муфта, полботинка и моховая борода\Naksitrallid_2_(1987).avi
Format : AVI
Format/Info : Audio Video Interleave
File size : 364 MiB
Duration : 29mn 11s
Overall bit rate : 1 743 Kbps
Writing application : VirtualDubMod 1.5.10.2 (build 2542/release)
Writing library : VirtualDubMod build 2542/release

Video
ID : 0
Format : MPEG-4 Visual
Format settings, BVOP : 1
Format settings, QPel : No
Format settings, GMC : No warppoints
Format settings, Matrix : Default (H.263)
Muxing mode : Packed bitstream
Codec ID : DX50
Codec ID/Hint : DivX 5
Duration : 29mn 11s
Bit rate : 1 541 Kbps
Width : 640 pixels
Height : 480 pixels
Display aspect ratio : 4:3
Frame rate : 25.000 fps
Color space : YUV
Chroma subsampling : 4:2:0
Bit depth : 8 bits
Scan type : Progressive
Compression mode : Lossy
Bits/(Pixel*Frame) : 0.201
Stream size : 322 MiB (88%)
Writing library : DivX 6.0.0 (UTC 2005-06-15)

Audio
ID : 1
Format : AC-3
Format/Info : Audio Coding 3
Mode extension : CM (complete main)
Codec ID : 2000
Duration : 29mn 11s
Bit rate mode : Constant
Bit rate : 192 Kbps
Channel(s) : 2 channels
Channel positions : Front: L R
Sampling rate : 48.0 KHz
Bit depth : 16 bits
Compression mode : Lossy
Stream size : 40.1 MiB (11%)
Alignment : Split accross interleaves
Interleave, duration : 40 ms (1.00 video frame)
Interleave, preload duration : 500 ms
piratbit.pw



Скачать Муфта, Полботинка и Моховая Борода 2 через торрент http://i2.imageban.ru/out/2015/12/12/581babf41715c19ee6d43d0ae6bc42e4.jpg Скачать фильм Муфта, Полботинка и Моховая Борода 2 через торрент бесплантно в хорошем качестве Описание: Мультфильм рассказывает о приключениях трех накситраллей, похожих на гномов. Вы быстро подружитесь с веселыми друзьями, которые ... 8.6 10 7
Торрент: Зарегистрирован [2015-12-12 03:10] · скачан: 43 раз
Статус: √ проверено
Размер: 364 MB
Как cкачать? Как скачать Муфта, Полботинка и Моховая Борода 2 через торрент | qTorrent

28-11-2019 20:33  

Отключить всю рекламу на сайте

    Дорогой пользователь! Огромная просьба, поблагодарите релизера, оцените раздачу и оставьте свои комментарий, если Вы скачали Муфта, Полботинка и Моховая Борода 2 через торрент бесплатно! Внесите свою лепту в развитие PiratBit!
    Комментировать посты могут только пользователи прошедшие не сложную регистрацию
    Показать сообщения:    

    Муфта, Полботинка и Моховая Борода 2 через торрент
    Скачать бесплатно Муфта, Полботинка и Моховая Борода 2
    Муфта, Полботинка и Моховая Борода 2 скачать торрент
    Муфта, Полботинка и Моховая Борода 2 смотреть онлайн
    Cкачать фильм Муфта, Полботинка и Моховая Борода 2 бесплатно
    Муфта, Полботинка и Моховая Борода 2 скачать торрент в хорошем качестве
    Муфта, Полботинка и Моховая Борода 2 смотреть онлайн бесплатно в хорошем качестве


    Вы не можете начинать темы
    Вы не можете отвечать на сообщения
    Вы не можете редактировать свои сообщения
    Вы не можете удалять свои сообщения
    Вы не можете голосовать в опросах
    Вы не можете прикреплять файлы к сообщениям
    Вы можете скачивать файлы