Ссылка на приватное зеркало всего за 1$. Внимание количество ограничено!!!

iTunes

1+1

iTunes

мы

MV0

1

WEB-DLRip

Джокер

Пифагор

Ведьмак / The Witcher сериал

iTunes

ПШазам

iTunes

Оно 2

iTunes

30
pack

Вам бонус

ВАЖНО

!!Акция!!

Alien_RageХит недели

RePack

Resident Evil 21

ИГРА 18+

pack

RePack

jed

!!Акция!!

Alien_Rage

RePack

fifa19

RePack

Assassins Creed: Odyssey

RePack

NEED FOR SPEED™ PAYBACK

4 сезон

9 сезон

Бесстыжие 9 сезон

Все сериалы

все сериалы на PB.wtf

RePack

FAR CRY 5
  

Пэн: Путешествие в Нетландию / Pan (Джо Райт) [2015, фэнтези, приключения, семейный, BDRip-AVC от R.G. Resident] Дубляж [iTunes] piratbit.pw

Пэн: Путешествие в Нетландию через торрент piratbit.pw

Размер: 2.13 GB | Добавлен: 4 года 1 мес. назад | Торрент скачан:234 раза
Скачать  

10-12-2015 21:11 Пэн: Путешествие в Нетландию Скачать торрент  

Пэн: Путешествие в Нетландию / Pan«У каждой легенды есть своё начало»

  • Год выхода: 2015
  • Жанр: фэнтези, приключения, семейный

  • Страна: США, Великобритания, Австралия
  • Продолжительность: 01:51:32
  • Перевод: Дубляж [iTunes]
  • Субтитры: Русские (форс.) [thx: V_ad]
  • Режиссер: Джо Райт
  • В ролях:

    Хью Джекман (Blackbeard), Леви Миллер (Peter), Гаррет Хедлунд (Hook), Руни Мара (Tiger Lily), Адиль Ахтар (Sam Smiegel), Нонсо Анози (Bishop), Аманда Сайфред (Mary), Кэти Бёрк (Mother Barnabas), Льюис МакДугалл (Nibs), Кара Делевинь (Mermaids), Тхэ-чжу На (Kwahu), Джек Чарльз (Chief)


  • История о сироте, который попал в волшебную Нетландию, где его поджидали опасные приключения. Там он понял, что его судьба - стать героем, который навсегда останется известен под именем Питер Пэн.

  • Качество: BDRip-AVC
  • Формат: MKV
  • Видео кодек: AVC
  • Аудио кодек: AC3
  • Видео: AVC, 1056x440 (2.40:1), 2349 kbps, 23,976 fps, 0,211 bpp
  • Аудио: русский / AC3 / 5.1 / 48 kHz / 384 kbps / 16 bit
  • Навигация по главам: есть

    Код:

    Общее
    Уникальный идентификатор                 : 194136954362964946934795879536205009980 (0x920D6AD8E3D085FEB980C832E598943C)
    Полное имя                               : H:\Pan.2015.BDRip.AVC.R.G.Resident.mkv
    Формат                                   : Matroska
    Версия формата                           : Version 4 / Version 2
    Размер файла                             : 2,13 Гбайт
    Продолжительность                        : 1 ч. 51 м.
    Общий поток                              : 2734 Кбит/сек
    Название фильма                          : Pan (2015) BDRip-AVC by R.G. Resident
    Дата кодирования                         : UTC 2015-12-31 08:24:51
    Программа кодирования                    : mkvmerge v8.6.1 ('Flying') 64bit
    Библиотека кодирования                   : libebml v1.3.3 + libmatroska v1.4.4

    Видео
    Идентификатор                            : 1
    Формат                                   : AVC
    Формат/Информация                        : Advanced Video Codec
    Профиль формата                          : High@L4.1
    Параметр CABAC формата                   : Да
    Параметр ReFrames формата                : 12 кадров
    Идентификатор кодека                     : V_MPEG4/ISO/AVC
    Продолжительность                        : 1 ч. 51 м.
    Битрейт                                  : 2349 Кбит/сек
    Ширина                                   : 1056 пикселей
    Высота                                   : 440 пикселей
    Соотношение сторон                       : 2,40:1
    Режим частоты кадров                     : Постоянный
    Частота кадров                           : 23,976 (24000/1001) кадра/сек
    Цветовое пространство                    : YUV
    Субдискретизация насыщенности            : 4:2:0
    Битовая глубина                          : 8 бит
    Тип развёртки                            : Прогрессивная
    Бит/(Пиксели*Кадры)                      : 0.211
    Размер потока                            : 1,83 Гбайт (86%)
    Заголовок                                : -Lexx-
    Библиотека кодирования                   : x264 core 146 r2538 121396c
    Настройки программы                      : cabac=1 / ref=12 / deblock=1:0:0 / analyse=0x3:0x113 / me=umh / subme=11 / psy=1 / psy_rd=1.00:0.10 / mixed_ref=1 / me_range=32 / chroma_me=1 / trellis=2 / 8x8dct=1 / cqm=0 / deadzone=21,11 / fast_pskip=0 / chroma_qp_offset=-3 / threads=6 / lookahead_threads=2 / sliced_threads=0 / nr=0 / decimate=1 / interlaced=0 / bluray_compat=0 / constrained_intra=0 / bframes=12 / b_pyramid=2 / b_adapt=2 / b_bias=0 / direct=3 / weightb=1 / open_gop=0 / weightp=2 / keyint=240 / keyint_min=23 / scenecut=40 / intra_refresh=0 / rc=2pass / mbtree=0 / bitrate=2349 / ratetol=1.0 / qcomp=0.60 / qpmin=0 / qpmax=69 / qpstep=4 / cplxblur=20.0 / qblur=0.5 / ip_ratio=1.40 / pb_ratio=1.30 / aq=1:1.00
    Язык                                     : English
    Default                                  : Да
    Forced                                   : Нет

    Аудио
    Идентификатор                            : 2
    Формат                                   : AC-3
    Формат/Информация                        : Audio Coding 3
    Расширение режима                        : CM (complete main)
    Параметр Endianness формата              : Big
    Идентификатор кодека                     : A_AC3
    Продолжительность                        : 1 ч. 51 м.
    Вид битрейта                             : Постоянный
    Битрейт                                  : 384 Кбит/сек
    Каналы                                   : 6 каналов
    Расположение каналов                     : Front: L C R, Side: L R, LFE
    Частота                                  : 48,0 КГц
    Частота кадров                           : 31,250 кадров/сек (1536 spf)
    Метод сжатия                             : С потерями
    Задержка видео                           : 2 с. 630 мс.
    Размер потока                            : 306 Мбайт (14%)
    Заголовок                                : Дубляж - iTunes
    Язык                                     : Russian
    Default                                  : Да
    Forced                                   : Да

    Текст
    Идентификатор                            : 3
    Формат                                   : UTF-8
    Идентификатор кодека                     : S_TEXT/UTF8
    Идентификатор кодека/Информация          : UTF-8 Plain Text
    Продолжительность                        : 1 ч. 44 м.
    Битрейт                                  : 0 бит/сек
    Count of elements                        : 12
    Размер потока                            : 469 байт (0%)
    Заголовок                                : Forsed
    Язык                                     : Russian
    Default                                  : Да
    Forced                                   : Да

    Меню
    00:00:00.000                             : en:Chapter 1
    00:10:28.419                             : en:Chapter 2
    00:19:45.851                             : en:Chapter 3
    00:31:07.282                             : en:Chapter 4
    00:39:14.060                             : en:Chapter 5
    00:48:27.863                             : en:Chapter 6
    01:00:07.562                             : en:Chapter 7
    01:09:29.373                             : en:Chapter 8
    01:20:12.808                             : en:Chapter 9
    01:30:02.897                             : en:Chapter 10
    01:39:51.026                             : en:Chapter 11
    01:43:05.888                             : en:Chapter 12

    Скриншоты:


    © Оформление by -Lexx- piratbit.pw



  • Скачать Пэн: Путешествие в Нетландию через торрент http://pic.kartinco.top/images/6/stazu.jpg Скачать фильм Пэн: Путешествие в Нетландию через торрент бесплантно в хорошем качестве qw.png История о сироте, который попал в волшебную Нетландию, где его поджидали опасные приключения. Там он понял, что его судьба - стать ... 9.3 10 18
    Info! Золотая раздача, скачанное не засчитывается.
    Торрент: Зарегистрирован [2015-12-31 09:05] · скачан: 234 раз
    Статус: √ проверено
    Размер: 2.13 GB
    Как cкачать? Как скачать Пэн: Путешествие в Нетландию через торрент | qTorrent

    % Раздел Тема Автор DL S | L
    Ultra HD (UHD: 2K, 4K, 8K) — видео сверхвысокой чёткости [ 48.38 GB ] Пэн: Путешествие в Нетландию / Pan [2015 UHD BDRemux 2160p] - [] sheker187 Скачать
    1 | 0
    3D Фильмы [ 37.39 GB ] Пэн: Путешествие в Нетландию 3D / Pan 3D [2015 Blu-ray disc 1080p] DUB BD CEE voovaz Скачать
    1 | 0
    Фильмы 2015 [DVDrip, WEB-DLRip, HDrip] [ 2.19 GB ] Пэн: Путешествие в Нетландию / Pan [2015 HDRip "BD CEE"] coc900 Скачать
    1 | 0
    Фильмы (HD 720p, 1080p) (48-60 fps) [ 5.19 GB ] Пэн: Путешествие в Нетландию / Pan [2015 BDRip 720p 60fps от еnvy / NNNB] DUB еnvy Скачать
    2 | 0
    Фильмы (Blu-ray, BD-Remux, HDDVD) [ 23.81 GB ] Пэн: Путешествие в Нетландию / Pan [2015 BD Remux ] Бумер Скачать
    1 | 0
    Фильмы 2015 [DVDrip, WEB-DLRip, HDrip] [ 1.46 GB ] Пэн: Путешествие в Нетландию / Pan [2015 BDRip] DUB Twi7ter Скачать
    2 | 0
    3D Фильмы [ 15.03 GB ] Пэн: Путешествие в Нетландию / Pan [2015 BDrip 1080p] DUB OverUnder / Вертикальная стереопара serega768 Скачать
    1 | 0


    Последний раз редактировалось: -Lexx- (2015-12-31 10:06), всего редактировалось 1 раз

    28-11-2019 20:33  

    Отключить всю рекламу на сайте

    31-12-2015 10:06 Пэн: Путешествие в Нетландию Скачать торрент  

    Посмотрим,спасибо.piratbit.pw



      Дорогой пользователь! Огромная просьба, поблагодарите релизера, оцените раздачу и оставьте свои комментарий, если Вы скачали Пэн: Путешествие в Нетландию через торрент бесплатно! Внесите свою лепту в развитие PiratBit!
      Комментировать посты могут только пользователи прошедшие не сложную регистрацию
      Показать сообщения:    

      Пэн: Путешествие в Нетландию через торрент
      Скачать бесплатно Пэн: Путешествие в Нетландию
      Пэн: Путешествие в Нетландию скачать торрент
      Пэн: Путешествие в Нетландию смотреть онлайн
      Cкачать фильм Пэн: Путешествие в Нетландию бесплатно
      Пэн: Путешествие в Нетландию скачать торрент в хорошем качестве
      Пэн: Путешествие в Нетландию смотреть онлайн бесплатно в хорошем качестве


      Вы не можете начинать темы
      Вы не можете отвечать на сообщения
      Вы не можете редактировать свои сообщения
      Вы не можете удалять свои сообщения
      Вы не можете голосовать в опросах
      Вы не можете прикреплять файлы к сообщениям
      Вы можете скачивать файлы