Ссылка на приватное зеркало всего за 1$. Внимание количество ограничено!!!

iTunes

1+1

iTunes

мы

MV0

1

WEB-DLRip

Джокер

Пифагор

Ведьмак / The Witcher сериал

iTunes

ПШазам

iTunes

Оно 2

iTunes

30
pack

Вам бонус

ВАЖНО

!!Акция!!

Alien_RageХит недели

RePack

Resident Evil 21

ИГРА 18+

pack

RePack

jed

!!Акция!!

Alien_Rage

RePack

fifa19

RePack

Assassins Creed: Odyssey

RePack

NEED FOR SPEED™ PAYBACK

4 сезон

9 сезон

Бесстыжие 9 сезон

Все сериалы

все сериалы на PB.wtf

RePack

FAR CRY 5
  

Константин: Повелитель тьмы / Constantine (Френсис Лоуренс) [2005, ужасы, фэнтези, драма, HDRip-AVC] DUB Лицензия R.G.Resident piratbit.pw

Константин: Повелитель тьмы через торрент piratbit.pw

Качают: 1 [ 0 KB/s ]
Размер: 2.12 GB | Добавлен: 4 года 2 мес. назад | Торрент скачан:198 раз
Скачать  

08-12-2015 18:52 Константин: Повелитель тьмы Скачать торрент  

Константин: Повелитель тьмы / Constantine
««Ад и Рай держат пари на Земле»»

Год выпуска: 2005
Страна: США, Германия
Жанр: ужасы, фэнтези, драма
Продолжительность: 02:00:47
Перевод: Дубляж - [Лицензия]
Режиссер: Френсис Лоуренс
В ролях:

Киану Ривз (John Constantine), Рэйчел Вайс (Angela Dodson / Isabel Dodson), Тильда Суинтон (Gabriel), Шайа ЛаБаф (Chas Kramer), Джимон Хонсу (Midnite), Макс Бейкер (Beeman), Прюитт Тэйлор Винс (Father Hennessy), Гэвин Россдэйл (Balthazar), Петер Стормаре (Satan), Джесси Рамирес (Scavenger), Хосе Суньига (Detective Weiss), Френсис Гуинан (Father Garret)
Описание:
Джону Константину удалось не только побывать в аду, но и вернуться обратно. Родившись с неугодным самому себе талантом - способностью распознавать помесь ангелов и демонов, которые бродят по земле в облике людей, - Константин под давлением обстоятельств пытается совершить самоубийство, лишь бы избавиться от мучительных видений. Но неудачно. Воскрешенный против собственной воли он снова оказывается в мире живых. Теперь, отмеченный печатью суицида и получивший временное право на жизнь, он патрулирует границу, разделяющую рай и ад, тщетно надеясь на обретение спасения путем сражения с земными ставленниками зла.
Мировая премьера: 8 февраля 2005

MPAA: R - Лицам до 17 лет обязательно присутствие взрослого
Качество: HDRip-AVC Rip by schultz R.G.Resident
Формат: MKV
Видео: AVC, 1152x472 (2.40:1), 1876 kbps, 23,976 fps, 0,144 bpp
Аудио: AC3 / 5.1 / 48 kHz / 640 kbps / 16 bit

Код:

x264 [info]: frame I:1282  Avg QP:14.88  size: 80840
x264 [info]: frame P:41052 Avg QP:18.62  size: 22197
x264 [info]: frame B:131428 Avg QP:21.73  size:  5208
General
Unique ID                                : 193351475729883174413798056084080566662 (0x917623C2B8B4A0C1B8CC5497D28A2186)
Complete name                            : D:\download\Constantine.2005.HDRip-AVC by schultz R.G.Resident.mkv
Format                                   : Matroska
Format version                           : Version 2
File size                                : 2.12 GiB
Duration                                 : 2h 0mn
Overall bit rate                         : 2 518 Kbps
Encoded date                             : UTC 2015-12-08 13:02:01
Writing application                      : mkvmerge v6.1.0 ('Old Devil') built on Mar  4 2013 09:10:42
Writing library                          : libebml v1.3.0 + libmatroska v1.4.0

Video
ID                                       : 1
Format                                   : AVC
Format/Info                              : Advanced Video Codec
Format profile                           : High@L4.1
Format settings, CABAC                   : Yes
Format settings, ReFrames                : 12 frames
Codec ID                                 : V_MPEG4/ISO/AVC
Duration                                 : 2h 0mn
Bit rate                                 : 1 876 Kbps
Width                                    : 1 152 pixels
Height                                   : 472 pixels
Display aspect ratio                     : 2.40:1
Frame rate                               : 23.976 fps
Color space                              : YUV
Chroma subsampling                       : 4:2:0
Bit depth                                : 8 bits
Scan type                                : Progressive
Bits/(Pixel*Frame)                       : 0.144
Stream size                              : 1.54 GiB (73%)
Writing library                          : x264 core 130 r2273 b3065e6
Encoding settings                        : cabac=1 / ref=12 / deblock=1:-2:-2 / analyse=0x3:0x113 / me=umh / subme=11 / psy=1 / psy_rd=1.00:0.15 / mixed_ref=1 / me_range=24 / chroma_me=1 / trellis=2 / 8x8dct=1 / cqm=0 / deadzone=21,11 / fast_pskip=1 / chroma_qp_offset=-3 / threads=12 / lookahead_threads=2 / sliced_threads=0 / nr=0 / decimate=0 / interlaced=0 / bluray_compat=0 / constrained_intra=0 / bframes=9 / b_pyramid=2 / b_adapt=2 / b_bias=0 / direct=3 / weightb=1 / open_gop=0 / weightp=2 / keyint=240 / keyint_min=23 / scenecut=40 / intra_refresh=0 / rc_lookahead=40 / rc=2pass / mbtree=1 / bitrate=1876 / ratetol=1.0 / qcomp=0.60 / qpmin=0 / qpmax=69 / qpstep=4 / cplxblur=20.0 / qblur=0.5 / vbv_maxrate=17500 / vbv_bufsize=14000 / nal_hrd=none / ip_ratio=1.40 / aq=1:0.80
Default                                  : Yes
Forced                                   : No

Audio
ID                                       : 2
Format                                   : AC-3
Format/Info                              : Audio Coding 3
Mode extension                           : CM (complete main)
Codec ID                                 : A_AC3
Duration                                 : 2h 0mn
Bit rate mode                            : Constant
Bit rate                                 : 640 Kbps
Channel(s)                               : 6 channels
Channel positions                        : Front: L C R, Side: L R, LFE
Sampling rate                            : 48.0 KHz
Bit depth                                : 16 bits
Compression mode                         : Lossy
Stream size                              : 553 MiB (25%)
Default                                  : Yes
Forced                                   : No


скриншот   скриншот   скриншот   скриншот   скриншот   скриншот  
piratbit.pw



Скачать Константин: Повелитель тьмы через торрент http://pic1.kartinco.top/images/10/r9tic.jpg Скачать фильм Константин: Повелитель тьмы через торрент бесплантно в хорошем качестве Описание: Джону Константину удалось не только побывать в аду, но и вернуться обратно. Родившись с неугодным самому себе талантом - ... 9.9 10 12
Info! Золотая раздача, скачанное не засчитывается.
Торрент: Зарегистрирован [2015-12-08 18:52] · скачан: 198 раз
Статус: √ проверено
Размер: 2.12 GB
Как cкачать? Как скачать Константин: Повелитель тьмы через торрент | qTorrent

28-11-2019 20:33  

Отключить всю рекламу на сайте


08-12-2015 20:06 Константин: Повелитель тьмы Скачать торрент  

недавно пересматривал.зачетный все таки фильмец piratbit.pw



08-12-2015 20:31 Константин: Повелитель тьмы Скачать торрент  

Отличный фильм.но непонял про-что.piratbit.pw



    Дорогой пользователь! Огромная просьба, поблагодарите релизера, оцените раздачу и оставьте свои комментарий, если Вы скачали Константин: Повелитель тьмы через торрент бесплатно! Внесите свою лепту в развитие PiratBit!
    Комментировать посты могут только пользователи прошедшие не сложную регистрацию
    Показать сообщения:    

    Константин: Повелитель тьмы через торрент
    Скачать бесплатно Константин: Повелитель тьмы
    Константин: Повелитель тьмы скачать торрент
    Константин: Повелитель тьмы смотреть онлайн
    Cкачать фильм Константин: Повелитель тьмы бесплатно
    Константин: Повелитель тьмы скачать торрент в хорошем качестве
    Константин: Повелитель тьмы смотреть онлайн бесплатно в хорошем качестве


    Вы не можете начинать темы
    Вы не можете отвечать на сообщения
    Вы не можете редактировать свои сообщения
    Вы не можете удалять свои сообщения
    Вы не можете голосовать в опросах
    Вы не можете прикреплять файлы к сообщениям
    Вы можете скачивать файлы