Ссылка на приватное зеркало всего за 1$. Внимание количество ограничено!!!

iTunes

1+1

iTunes

мы

MV0

1

WEB-DLRip

Джокер

Пифагор

Ведьмак / The Witcher сериал

iTunes

ПШазам

iTunes

Оно 2

iTunes

30
pack

Вам бонус

ВАЖНО

!!Акция!!

Alien_RageХит недели

RePack

Resident Evil 21

ИГРА 18+

pack

RePack

jed

!!Акция!!

Alien_Rage

RePack

fifa19

RePack

Assassins Creed: Odyssey

RePack

NEED FOR SPEED™ PAYBACK

4 сезон

9 сезон

Бесстыжие 9 сезон

Все сериалы

все сериалы на PB.wtf

RePack

FAR CRY 5
  

Осада / The Siege (Эдвард Цвик) [1998, боевик, триллер, драма, HDRip-AVC, Дубляж] R.G.Resident piratbit.pw

Осада через торрент piratbit.pw

Размер: 2.12 GB | Добавлен: 4 года 2 мес. назад | Торрент скачан:14 раз
Скачать  

08-12-2015 18:52 Осада Скачать торрент  

Осада / The Siege
««An enemy they can't see. A nation under siege. A crisis they can't control»»

Год выпуска: 1998
Страна: США
Жанр: боевик, триллер, драма, криминал
Продолжительность: 01:56:05
Перевод: Дубляж
Режиссер: Эдвард Цвик
В ролях:

Дензел Вашингтон (Anthony «Hub» Hubbard), Аннетт Бенинг (Elise Kraft / Sharon Bridger), Брюс Уиллис (Major General William Devereaux), Тони Шэлуб (Agent Frank Haddad), Сами Буажила (Samir Nazhde), Ахмед Бен Ларби (Sheik Achmed Bin Talal), Мосле Мохамед (Muezzin), Лианна Пай (Tina Osu), Марк Вэлли (FBI Agent Mike Johanssen), Джек Гуолтни (Fred Darius), Дэвид Провэл (Danny Sussman), Лэнс Реддик (FBI Agent Floyd Rose)
Описание:
Когда в Бруклине взлетает на воздух автобус и на улицах Нью-Йорка разворачивается кровавый террор, Хаб - Хаббарт, глава Объединенного Антитеррористического Подразделения ФБР получает задание задержать террористов и предъявить им обвинение. Элиза Крафт - тайный оперативный агент ЦРУ. Она обладает ценными источниками информации в среде американцев арабского происхождения и тесно связана с ними.
Хаб и Элиза работают вместе, объединившись для совместной борьбы против террористической группы. Но этого оказывается недостаточно. Требования общественности обеспечить безопасность граждан вынуждают президента США объявить чрезвычайное положение и обратиться за помощью к армии. Генерал Уильям Деверо решительно берется за дело по наведению военного порядка.
Мировая премьера: 6 ноября 1998

MPAA: R - Лицам до 17 лет обязательно присутствие взрослого
Качество: HDRip-AVC Rip by schultz R.G.Resident
Формат: MKV
Видео: AVC, 1136x480 (2.35:1), 2168 kbps, 23,976 fps, 0,166 bpp
Аудио: AC3 / 5.1 / 48 kHz / 448 kbps / 16 bit

Код:

x264 [info]: frame I:1669  Avg QP:16.74  size: 79192
x264 [info]: frame P:39210 Avg QP:20.31  size: 22709
x264 [info]: frame B:126134 Avg QP:22.71  size:  6852
General
Unique ID                                : 182260478106197839518322779475940590830 (0x891E175BEAFC6B169E15843AEBF1C4EE)
Complete name                            : D:\download\Osada.1998.HDRip-AVC by schultz R.G.Resident.mkv
Format                                   : Matroska
Format version                           : Version 2
File size                                : 2.12 GiB
Duration                                 : 1h 56mn
Overall bit rate                         : 2 617 Kbps
Encoded date                             : UTC 2015-12-08 00:59:54
Writing application                      : mkvmerge v6.1.0 ('Old Devil') built on Mar  4 2013 09:10:42
Writing library                          : libebml v1.3.0 + libmatroska v1.4.0

Video
ID                                       : 1
Format                                   : AVC
Format/Info                              : Advanced Video Codec
Format profile                           : High@L4.1
Format settings, CABAC                   : Yes
Format settings, ReFrames                : 12 frames
Codec ID                                 : V_MPEG4/ISO/AVC
Duration                                 : 1h 56mn
Bit rate                                 : 2 168 Kbps
Width                                    : 1 136 pixels
Height                                   : 480 pixels
Display aspect ratio                     : 2.35:1
Frame rate                               : 23.976 fps
Color space                              : YUV
Chroma subsampling                       : 4:2:0
Bit depth                                : 8 bits
Scan type                                : Progressive
Bits/(Pixel*Frame)                       : 0.166
Stream size                              : 1.72 GiB (81%)
Writing library                          : x264 core 130 r2273 b3065e6
Encoding settings                        : cabac=1 / ref=12 / deblock=1:-2:-2 / analyse=0x3:0x113 / me=umh / subme=11 / psy=1 / psy_rd=1.00:0.15 / mixed_ref=1 / me_range=24 / chroma_me=1 / trellis=2 / 8x8dct=1 / cqm=0 / deadzone=21,11 / fast_pskip=1 / chroma_qp_offset=-3 / threads=12 / lookahead_threads=2 / sliced_threads=0 / nr=0 / decimate=0 / interlaced=0 / bluray_compat=0 / constrained_intra=0 / bframes=9 / b_pyramid=2 / b_adapt=2 / b_bias=0 / direct=3 / weightb=1 / open_gop=0 / weightp=2 / keyint=240 / keyint_min=23 / scenecut=40 / intra_refresh=0 / rc_lookahead=40 / rc=2pass / mbtree=1 / bitrate=2168 / ratetol=1.0 / qcomp=0.60 / qpmin=0 / qpmax=69 / qpstep=4 / cplxblur=20.0 / qblur=0.5 / vbv_maxrate=17500 / vbv_bufsize=14000 / nal_hrd=none / ip_ratio=1.40 / aq=1:0.80
Default                                  : Yes
Forced                                   : No

Audio
ID                                       : 2
Format                                   : AC-3
Format/Info                              : Audio Coding 3
Mode extension                           : CM (complete main)
Codec ID                                 : A_AC3
Duration                                 : 1h 56mn
Bit rate mode                            : Constant
Bit rate                                 : 448 Kbps
Channel(s)                               : 6 channels
Channel positions                        : Front: L C R, Side: L R, LFE
Sampling rate                            : 48.0 KHz
Bit depth                                : 16 bits
Compression mode                         : Lossy
Stream size                              : 372 MiB (17%)
Default                                  : Yes
Forced                                   : No


скриншот   скриншот   скриншот   скриншот   скриншот   скриншот  
piratbit.pw



Скачать Осада через торрент http://pic1.kartinco.top/images/10/sbhi1.jpg Скачать фильм Осада через торрент бесплантно в хорошем качестве Описание: Когда в Бруклине взлетает на воздух автобус и на улицах Нью-Йорка разворачивается кровавый террор, Хаб - Хаббарт, глава ... 10 10 1
Info! Золотая раздача, скачанное не засчитывается.
Торрент: Зарегистрирован [2015-12-08 18:52] · скачан: 14 раз
Статус: √ проверено
Размер: 2.12 GB
Как cкачать? Как скачать Осада через торрент | qTorrent

28-11-2019 20:33  

Отключить всю рекламу на сайте

    Дорогой пользователь! Огромная просьба, поблагодарите релизера, оцените раздачу и оставьте свои комментарий, если Вы скачали Осада через торрент бесплатно! Внесите свою лепту в развитие PiratBit!
    Комментировать посты могут только пользователи прошедшие не сложную регистрацию
    Показать сообщения:    

    Осада через торрент
    Скачать бесплатно Осада
    Осада скачать торрент
    Осада смотреть онлайн
    Cкачать фильм Осада бесплатно
    Осада скачать торрент в хорошем качестве
    Осада смотреть онлайн бесплатно в хорошем качестве


    Вы не можете начинать темы
    Вы не можете отвечать на сообщения
    Вы не можете редактировать свои сообщения
    Вы не можете удалять свои сообщения
    Вы не можете голосовать в опросах
    Вы не можете прикреплять файлы к сообщениям
    Вы можете скачивать файлы